Ссылка на приватное зеркало нашего сайта всего за 1$. Внимание количество ограничено!!!

2 сезон

iTunes

1 сезон

1

iTunes

iTunes

iTunes

1 сезон

RePack

30

ИГРА 18+

pack

ВАЖНО

!!Акция!!

Alien_RageХит недели

RePack

MK11
pack

Забери бонус

RePack

jed

!!Акция!!

Alien_Rage

RePack

fifa19

RePack

Assassins Creed: Odyssey

RePack

NEED FOR SPEED™ PAYBACK

4 сезон

9 сезон

Бесстыжие 9 сезон

Все сериалы

все сериалы на PB.wtf

RePack

FAR CRY 5
  

Три капитана / Сезон: 1 / Серии: 1-10 из 10 (Илья Шеховцов) [2020, Детектив, WEBRip] pb.wtf

Три капитана через торрент pb.wtf

Размер: 5.95 GB | Добавлен: 6 мес. назад | Торрент скачан:120 раз
Скачать  

31-03-2020 01:53 Три капитана Скачать торрент  

Три капитана
Год выпуска: 2020
Страна: Россия
Жанр: Детектив
Продолжительность: ~ 00:45:00
Субтитры: отсутствуют

Режиссер: Илья Шеховцов



В ролях: Максим Щёголев, Иван Кокорин, Глеб Гервассиев, Николай Козак, Анатолий Кот, Олеся Фаттахова, Андрей Астраханцев, Екатерина Соломатина, Дмитрий Радонов, Кристина Кучеренко, Зепюр Брутян, Анна Бачалова, Денис Зайнуллин, Олег Руденко-Травин

Описание: Три капитана в отставке, три друга – Виктор Серёгин, Джокер и Александр Пехота – когда-то вместе воевали в горячих точках. Их бывший сослуживец, Иван Легостаев, был подрывником от бога. Однажды вместе с группой разведки Легостаев попал на территорию спрятанных в земле артиллерийских снарядов. Его тела тогда не нашли, думали, что он попал в плен. И только через полгода Серёгин случайно встретил Легостаева в горном ауле. Его было трудно узнать – борода, шапка, надвинутая на лоб, – но Серёгин узнал. Тогда он понял, что Легостаев сознательно переметнулся к террористам и, чтобы доказать преданность, привел своих на верную смерть... В результате штурма спецназом дома-убежища Легостаева, погибает его жена. Невольным виновником её смерти оказывается Серёгин. Проходит 10 лет. Серёгин, Джокер и Пехота оставляют работу в отряде взрывотехников МВД России, но прошлое снова напоминает о себе. Легостаеву удается сбежать с пожизненного заключения. И он начинает мстить Серёгину, убивая одного за другим его сослуживцев. Жизнь троих капитанов, их родных, да и просто рядовых граждан снова находится под угрозой. Справятся ли они с минами, которые подбрасывает им судьба? Успеют ли спастись и спасти своих близких?

Качество: WEBRip
Формат: AVI

Видео: XviD, ~ 1600 Кбит/с, 720x304
Аудио: 48.0 kHz, AC3 Dolby Digital, 2/0 (L,R) ch, ~ 192 kbps
скриншот  скриншот  скриншот  скриншот  

General
Complete name : H:fiiles xТри капитана.(2019).WEBRip.Files-x1.Три капитана.(2019).WEBRip.Files-x.avi
Format : AVI
Format/Info : Audio Video Interleave
File size : 587 MiB
Duration : 45mn 35s
Overall bit rate : 1 800 Kbps
Writing application : VirtualDubMod 1.5.10.3 | www.virtualdub-fr.org || (build 2550/release)
Writing library : VirtualDubMod build 2550/release

Video
ID : 0
Format : MPEG-4 Visual
Format profile : Advanced Simple@L5
Format settings, BVOP : 1
Format settings, QPel : No
Format settings, GMC : No warppoints
Format settings, Matrix : Custom
Codec ID : XVID
Codec ID/Hint : XviD
Duration : 45mn 35s
Bit rate : 1 599 Kbps
Width : 720 pixels
Height : 304 pixels
Display aspect ratio : 2.35:1
Frame rate : 25.000 fps
Color space : YUV
Chroma subsampling : 4:2:0
Bit depth : 8 bits
Scan type : Progressive
Compression mode : Lossy
Bits/(Pixel*Frame) : 0.292
Stream size : 521 MiB (89%)
Writing library : XviD 73

Audio
ID : 1
Format : AC-3
Format/Info : Audio Coding 3
Mode extension : CM (complete main)
Codec ID : 2000
Duration : 45mn 35s
Bit rate mode : Constant
Bit rate : 192 Kbps
Channel(s) : 2 channels
Channel positions : Front: L R
Sampling rate : 48.0 KHz
Bit depth : 16 bits
Compression mode : Lossy
Stream size : 62.6 MiB (11%)
Alignment : Split accross interleaves
Interleave, duration : 40 ms (1.00 video frame)
Interleave, preload duration : 500 ms

Когда раздача ведётся путём добавления новых серий, при каждом добавлении создётся новый торрент. Чтобы начать докачку новой серии, пользователям необходимо сделать следующее:
(1) остановить скачивание,
(2) удалить старый торрент у себя из клиента (старые серии удалять не надо),
(3) скачать новый торрент и запустить его у себя в клиенте вместо старого, при этом указать клиенту путь в старую папку, куда и должно происходить скачивание новых серий.
Ваш клиент при этом должен произвести хеширование (проверку) старой папки (если не производит сам - помогите ему сделать это), и будет докачивать только те серии, которых у вас ещё нет.Старые серии при этом не удаляются, а продолжают раздаваться!
Eсли вы уже удалили старые серии, то предотвратить повторную закачку старых серий можно, отжав галочку в соответсвующих местах при запуске нового торрента. По возможности, желательно не удалять старые серии как можно дольше, чтобы релизёр не столько продолжал раздавать старые серии, а смог сконцентрироваться на новых.
pb.wtf



Скачать Три капитана через торрент https://img15.lostpic.net/2020/03/30/65c493b5f8ed09327c802a57ecb3c929.th.jpg Скачать фильм Три капитана через торрент бесплантно в хорошем качестве Описание: Три капитана в отставке, три друга – Виктор Серёгин, Джокер и Александр Пехота – когда-то вместе воевали в горячих точках. Их ... 10 10 8
Торрент: Зарегистрирован [2020-04-04 09:26] · скачан: 120 раз
Статус: √ проверено
Размер: 5.95 GB
Как cкачать? Как скачать Три капитана через торрент | qTorrent

% Раздел Тема Автор DL S | L
Наши сериалы [ 6.59 GB ] Три капитана / Сезон: 1 / Серии: 1-10 из 10 [2020 SATRip] bober100 Скачать
2 | 0
Наши сериалы [ 7.24 GB ] Три капитана / Сезон: 1 / Серии: 1-10 из 10 [2020 WEBRip-AVC] bober100 Скачать
1 | 0
Наши сериалы [ 20.38 GB ] Три капитана / Сезон: 1 / Серии: 1-10 из 10 [2020 WEBRip 1080p] bober100 Скачать
1 | 0
Наши сериалы [ 12.19 GB ] Три капитана / Сезон: 1 / Серии: 1-10 из 10 [2020 WEBRip 720p] bober100 Скачать
1 | 0

28-11-2019 20:33  

Отключить всю рекламу на сайте

    Дорогой пользователь! Огромная просьба, поблагодарите релизера, оцените раздачу и оставьте свои комментарий, если Вы скачали Три капитана через торрент бесплатно! Внесите свою лепту в развитие PiratBit!
    Комментировать посты могут только пользователи прошедшие не сложную регистрацию
    Показать сообщения:    

    Три капитана через торрент
    Скачать бесплатно Три капитана
    Три капитана скачать торрент
    Три капитана смотреть онлайн
    Cкачать фильм Три капитана бесплатно
    Три капитана скачать торрент в хорошем качестве
    Три капитана смотреть онлайн бесплатно в хорошем качестве


    Вы не можете начинать темы
    Вы не можете отвечать на сообщения
    Вы не можете редактировать свои сообщения
    Вы не можете удалять свои сообщения
    Вы не можете голосовать в опросах
    Вы не можете прикреплять файлы к сообщениям
    Вы можете скачивать файлы