2 сезон

iTunes

MVO

1

2 сезон

iTunes

iTunes

1 сезон

RePack

30

Ultimate

ВАЖНО

ИГРА 18+

pack

RePack

MK11
pack

Легкие деньги

RePack

jed

RePack

fifa19

RePack

RDR2

RePack

NEED FOR SPEED™ PAYBACK

4 сезон

9 сезон

Бесстыжие 9 сезон

Все сериалы

все сериалы на PB.wtf

RePack

FAR CRY 5

Anonymous, добрый вечер, мы не успеваем собрать деньги на оплату серверов за декабрь и январь, помогите нам пожалуйста в это трудное время. В качестве благодарности мы отключим Вам всю рекламу на сайте (укажите свой ник в строку Ваше имя)!

×
  
Magnet ссылка

Озарк / Ozark / Сезон: 3 / Серии: 1-10 из 10 (Джейсон Бейтман, Алик Сахаров, Эндрю Бернштейн) [2020, триллер, драма, криминал, WEBRip] MVO [LostFilm] pb.wtf

Озарк через торрент pb.wtf

Размер: 8.49 GB | Добавлен: 8 мес. назад | Торрент скачан:57 раз
Скачать  

31-03-2020 13:39 Озарк Скачать торрент  

Озарк | Ozark
«Their last resort»
Год выпуска: 2020
Страна: США
Студия: Media Rights Capital, Zero Gravity Management
Жанр: триллер, драма, криминал
Продолжительность: ~ 00:59:00 серия
Перевод: Профессиональный (многоголосый закадровый) | LostFilm
Субтитры: Русские, английские (SDH)

Режиссер: Джейсон Бейтман, Алик Сахаров, Эндрю Бернштейн

rating


В ролях: Джейсон Бейтман (Martin «Marty» Byrde), Лора Линни (Wendy Byrde), София Хьюблиц (Charlotte Byrde), Скайлар Гертнер (Jonah Byrde), Джулия Гарнер (Ruth Langmore), Джордана Спиро (Rachel), Джейсон Батлер Харнер (Roy Petty), Эсай Моралес (Del), Питер Муллан (Jacob Snell), Лиза Эмери (Darlene Snell), Харрис Юлин (Buddy Dieker), Чарли Тахэн (Wyatt)

Описание: Мартин Бёрд (Джейсон БейтманЭсай Моралес) — обычный семьянин. Он ездит на старенькой «Тойоте», покупает продукты и одежду в магазинах для среднего класса и учит свою семью жить по средствам. Ни жена, ни дети Марти не знают, что средств у него гораздо больше, чем зарабатывает среднестатистический финансист. Мистер Бёрд гораздо умнее и бесстрашнее простого бухгалтера — много лет он является незаменимым наемным работником чикагской мафии, для которой отмывает деньги. Однажды его «босс», жестокий криминальный авторитет Дель (), начинает подозревать, что партнер Мартина присвоил часть его прибыли, и устраивает показательную казнь на глазах у Бёрда. Следующим, чей труп отправится в контейнер с кислотой, неизбежно должен стать сам Мартин, но в последнюю минуту он умудряется убедить Деля в том, что от него живого пользы будет больше, чем от мертвого. Чтобы спасти себя и семью, финансист обещает «боссу» за несколько лет отмыть 500 миллионов долларов. Он понимает, что это невозможно, что смертельная опасность не обошла его родных стороной, а сам он лишь получил отсрочку. И все же Дель заглотил наживку и ждет результатов. Для выполнения обещания Бёрд вынужден вывезти жену и детей из Чикаго на озеро Озарк, где, как говорят, без проблем можно отмыть что угодно. Местечко, про которое в кругу финансистов ходят самые невероятные слухи, становится последней надеждой Мартина Бёрда. Вот только там почему-то никто не встает в очередь за его услугами. Да еще и банда деклассированных реднеков с кучей судимостей у каждого сразу почуяла в незваном госте легкую добычу. Более того, в Озарк вслед за Мартином выехали федеральные агенты. Теперь вопрос заключается в том, на какие жертвы готов пойти Бёрд, чтобы спасти семью и выбраться из своей же ловушки без трагических последствий.

Качество: WEBRip
Формат: AVI

Видео: XviD, 704x320, 23,976 fps, ~ 1600 kbps
Аудио Rus: 48 kHz, AC3 2 ch, ~192 kbps |LostFilm|
Аудио Eng: 48 kHz, AC3 2 ch, ~192 kbps
скриншот  скриншот  скриншот  скриншот  

Format : AVI
Format/Info : Audio Video Interleave
File size : 868 MiB
Duration : 1h 0mn
Overall bit rate : 1 999 Kbps
Movie name : Озарк 3х01: Они идут ва-банк
Director : Бёдвар (WEBRip)
Writing application : VirtualDubModRus 1.5.10.2 (build 2542/release)
Comment : 31.03.2020

Video
ID : 0
Format : MPEG-4 Visual
Format profile : Advanced Simple@L5
Format settings, BVOP : 1
Format settings, QPel : No
Format settings, GMC : No warppoints
Format settings, Matrix : Default (MPEG)
Codec ID : XVID
Codec ID/Hint : XviD
Duration : 1h 0mn
Bit rate : 1 600 Kbps
Width : 704 pixels
Height : 320 pixels
Display aspect ratio : 2.2:1
Frame rate : 23.976 (24000/1001) fps
Color space : YUV
Chroma subsampling : 4:2:0
Bit depth : 8 bits
Scan type : Progressive
Compression mode : Lossy
Bits/(Pixel*Frame) : 0.296
Stream size : 695 MiB (80%)
Writing library : XviD 67

Audio #1
ID : 1
Format : AC-3
Format/Info : Audio Coding 3
Mode extension : CM (complete main)
Format settings, Endianness : Big
Codec ID : 2000
Duration : 1h 0mn
Bit rate mode : Constant
Bit rate : 192 Kbps
Channel(s) : 2 channels
Channel positions : Front: L R
Sampling rate : 48.0 KHz
Frame rate : 31.250 fps (1536 spf)
Compression mode : Lossy
Stream size : 83.4 MiB (10%)
Alignment : Split accross interleaves
Interleave, duration : 42 ms (1.00 video frame)
Interleave, preload duratio : 500 ms
Title : LostFilm (rus)

Audio #2
ID : 2
Format : AC-3
Format/Info : Audio Coding 3
Mode extension : CM (complete main)
Format settings, Endianness : Big
Codec ID : 2000
Duration : 1h 0mn
Bit rate mode : Constant
Bit rate : 192 Kbps
Channel(s) : 2 channels
Channel positions : Front: L R
Sampling rate : 48.0 KHz
Frame rate : 31.250 fps (1536 spf)
Compression mode : Lossy
Stream size : 83.4 MiB (10%)
Alignment : Split accross interleaves
Interleave, duration : 42 ms (1.00 video frame)
Interleave, preload duratio : 500 ms
Title : Original (eng)

Когда раздача ведётся путём добавления новых серий, при каждом добавлении создётся новый торрент. Чтобы начать докачку новой серии, пользователям необходимо сделать следующее:
(1) остановить скачивание,
(2) удалить старый торрент у себя из клиента (старые серии удалять не надо),
(3) скачать новый торрент и запустить его у себя в клиенте вместо старого, при этом указать клиенту путь в старую папку, куда и должно происходить скачивание новых серий.
Ваш клиент при этом должен произвести хеширование (проверку) старой папки (если не производит сам - помогите ему сделать это), и будет докачивать только те серии, которых у вас ещё нет. Старые серии при этом не удаляются, а продолжают раздаваться!
Eсли вы уже удалили старые серии, то предотвратить повторную закачку старых серий можно, отжав галочку в соответсвующих местах при запуске нового торрента. По возможности, желательно не удалять старые серии как можно дольше, чтобы релизер не столько продолжал раздавать старые серии, а смог сконцентрироваться на новых.
pb.wtf



Скачать Озарк через торрент https://i6.imageban.ru/out/2020/03/31/16df85de7b75cc24ed1df1783beacb41.png Скачать фильм Озарк через торрент бесплантно в хорошем качестве Описание: Мартин Бёрд (Джейсон БейтманЭсай Моралес) — обычный семьянин. Он ездит на старенькой «Тойоте», покупает продукты и одежду в ... 10 10 4
Торрент: Зарегистрирован [2020-04-22 17:08] · скачан: 57 раз
Статус: √ проверено
Размер: 8.49 GB
Как cкачать? Как скачать Озарк через торрент | UTorrent

% Раздел Тема Автор DL S | L
Зарубежные сериалы [ 33.67 GB ] Озарк / Ozark / Сезон: 3 / Серии: 1-10 из 10 [2020 WEBRip 720p] [DVO] killermax2013 Скачать
2 | 0
Зарубежные сериалы [ 8.49 GB ] Озарк / Ozark / Сезон: 3 / Серии: 1-10 из 10 [2020 WEB-DLRip] DUB [Пифагор / Netflix] bober100 Скачать
1 | 0
Зарубежные сериалы [ 31.92 GB ] Озарк / Ozark / Сезон: 3 / Серии: 1-10 из 10 [2020 WEBRip 1080p] MVO [Jaskier] bober100 Скачать
1 | 0
Зарубежные сериалы [ 10.42 GB ] Озарк / Ozark / Сезон: 3 / Серии: 1-10 из 10 [2020 WEBRip 720p] MVO [Jaskier] bober100 Скачать
1 | 0
Зарубежные сериалы [ 7.58 GB ] Озарк / Ozark / Сезон: 3 / Серии: 1-10 из 10 [2020 WEBRip] MVO [Jaskier] bober100 Скачать
1 | 0
Зарубежные сериалы [ 49.73 GB ] Озарк / Ozark / Сезон: 3 / Серии: 1-10 из 10 [2020 WEBRip 1080p] MVO [LostFilm] bober100 Скачать
1 | 0
Зарубежные сериалы [ 33.77 GB ] Озарк / Ozark / Сезон: 3 / Серии: 1-10 из 10 [2020 WEB-DL 1080p] DUB [Пифагор / Netflix] bober100 Скачать
1 | 0

28-11-2019 20:33  

Отключить всю рекламу на сайте

    Дорогой пользователь! Огромная просьба, поблагодарите релизера, оцените раздачу и оставьте свои комментарий, если Вы скачали Озарк через торрент бесплатно! Внесите свою лепту в развитие PiratBit!
    Комментировать посты могут только пользователи прошедшие не сложную регистрацию
    Показать сообщения:    

    Озарк через торрент
    Скачать бесплатно Озарк
    Озарк скачать торрент
    Озарк смотреть онлайн
    Cкачать фильм Озарк бесплатно
    Озарк скачать торрент в хорошем качестве
    Озарк смотреть онлайн бесплатно в хорошем качестве


    Вы не можете начинать темы
    Вы не можете отвечать на сообщения
    Вы не можете редактировать свои сообщения
    Вы не можете удалять свои сообщения
    Вы не можете голосовать в опросах
    Вы не можете прикреплять файлы к сообщениям
    Вы можете скачивать файлы