Всегда рабочее зеркало без VPN и Proxy просто перед .vidak.icu напиши любое слово или цифру, Пример http://g1qu.vidak.icu

Лицензия

MVO

1 сезон

1

1 сезон

iTunes

1 сезон

13

1 сезон

Deluxe

pack

Рекомендуем

Repack

30

ВАЖНО

RePack

MK11

RePack

jed

RePack

fifa19

RePack

RDR2

RePack

NEED FOR SPEED™ PAYBACK

Кинопоиск HD

6 сезон

 Острые козырьки 6 сезон

Все сериалы

все сериалы на PB.wtf

RePack

FAR CRY 5
  
Magnet ссылка

Звездные войны: Эпизод 2: Атака клонов / Star Wars: Episode II - Attack of the Clones (Джордж Лукас) [2002, Фантастика, фэнтези, боевик, приключения, UHD BDRemux 2160p] DUB [Лицензия] pb.wtf

Звездные войны: Эпизод 2: Атака клонов через торрент pb.wtf

Размер: 48 GB | Добавлен: 2 года 4 мес. назад | Торрент скачан:180 раз
Смотреть онлайн Звездные войны: Эпизод 2: Атака клонов | Скачать    Ребята, помогите собрать деньги на оплату серверов!!!

01-04-2020 09:42 Звездные войны: Эпизод 2: Атака клонов Скачать торрент  

Звездные войны: Эпизод 2: Атака клонов | Star Wars: Episode II - Attack of the Clones
Год выпуска: 2002
Страна: США
Студия: Lucasfilm Ltd.
Жанр: Фантастика, фэнтези, боевик, приключения
Продолжительность: 02:22:30
Перевод: Дублированный | Лицензия
Субтитры: Русские (Forced, Full), английские

Режиссер: Джордж Лукас

rating

В ролях: Эван МакГрегор, Натали Портман, Хейден Кристенсен, Кристофер Ли, Сэмюэл Л. Джексон, Фрэнк Оз, Иэн МакДайармид, Пернилла Аугуст, Темуэра Моррисон, Дэниэл Логан, Джимми Смитс, Джек Томпсон, Лианна Уолсмен, Ахмед Бест, Роуз Бирн, Оливер Форд Дэвис, Рон Фальк, Джей Лагайя, Эндрю Сиком, Энтони Дэниелс, Сайлас Карсон, Айеша Дхаркер

Описание: Давным-давно, в далёкой-далёкой галактике нарастают неустройства и конфликты. Множество систем грозятся выйти из союза в пользу сепаратистского движения, возглавляемого графом Дуку. Рыцарям джедайского ордена становится всё труднее сохранять мир. Назревает вопрос создания республиканской армии. Противница милитаристской идеи, сенатор Падме Амидала, подверглась акту ликвидации во время прибытия на Корусант. На защиту высокопоставленной персоны были привлечены два джедая: учитель – Оби-Ван Кеноби и Энакин Скайуокер – его падаван. Детская привязанность Энакина к Падме перерастает в более сильные чувства молодого юноши. Расследование покушения приводит к тому, что Оби-Ван отправляется на поиски заказчика, а Энакин и Падме улетают на прекрасную планету Набу, где у них разворачивается красивый роман. Цепь расследований Оби-Вана приводит его к обескураживающим новостям: он узнаёт о готовящейся армии клонов на планете Камино и армии дроидов на Джеонозисе, а также – что лорд-ситх Дарт Сидиус сейчас управляет Галактическим Сенатом… В связи с нарастающим конфликтом Галактический Сенат налагает особые полномочия на сенатора Палпатина, который сообщает, что для возвращения мира Галактике необходима АТАКА КЛОНОВ. Энакин Скайуокер теряет мать и обретает всё больший страх потерять любимую. Тёмная сторона Силы насаждает плевела гнева и ненависти в сердце юноши… и окутывает Галактику…

Качество: UHD BDRemux 2160p
Формат: MKV

Видео: 3840x2160 at 23.976 fps, MPEG-H HEVC HDR Video, 41900 kbps avg
Аудио #01: 48 kHz, DTS, 5.1, 768 Kbps | Лицензия | RUS |
Аудио #02: 48 kHz, AC3, 5.1, 448 Kbps | Лицензия | RUS |
Аудио #03: 48 kHz, TrueHD, 7.1, 4363 Kbps | Оригинал | ENG |
Аудио #04: 48 kHz, AC3, 5.1, 640 Kbps | Оригинал | ENG |
скриншот  скриншот  скриншот  скриншот  скриншот  

General
Unique ID : 169046323268123437190924380735917638603 (0x7F2D23398FAB7ADF4AB68D56F7EDC3CB)
Complete name : E:Video111Star.Wars.Episode.II.Attack.of.the.Clones.2002.BDREMUX.2160p.HDR.seleZen.mkv
Format : Matroska
Format version : Version 4
File size : 48.0 GiB
Duration : 2 h 22 min
Overall bit rate mode : Variable
Overall bit rate : 48.2 Mb/s
Movie name : Star Wars Episode II Attack of the Clones 2002 from селезень
Encoded date : UTC 2020-04-01 05:29:02
Writing application : mkvmerge v40.0.0 ('Old Town Road + Pony') 64-bit
Writing library : libebml v1.3.9 + libmatroska v1.5.2

Video
ID : 1
Format : HEVC
Format/Info : High Efficiency Video Coding
Format profile : Main [email protected]@High
HDR format : SMPTE ST 2086, HDR10 compatible
Codec ID : V_MPEGH/ISO/HEVC
Duration : 2 h 22 min
Bit rate : 41.9 Mb/s
Width : 3 840 pixels
Height : 2 160 pixels
Display aspect ratio : 16:9
Frame rate mode : Constant
Frame rate : 23.976 (24000/1001) FPS
Color space : YUV
Chroma subsampling : 4:2:0 (Type 2)
Bit depth : 10 bits
Bits/(Pixel*Frame) : 0.211
Stream size : 41.7 GiB (87%)
Writing library : ATEME Titan File 3.9.0 (4.9.0.0)
Language : English
Default : No
Forced : No
Color range : Limited
Color primaries : BT.2020
Transfer characteristics : PQ
Matrix coefficients : BT.2020 non-constant
Mastering display color pri : BT.2020
Mastering display luminance : min: 0.0001 cd/m2, max: 1000 cd/m2

Audio #1
ID : 2
Format : DTS
Format/Info : Digital Theater Systems
Codec ID : A_DTS
Duration : 2 h 22 min
Bit rate mode : Constant
Bit rate : 768 kb/s
Channel(s) : 6 channels
Channel layout : C L R Ls Rs LFE
Sampling rate : 48.0 kHz
Frame rate : 93.750 FPS (512 SPF)
Bit depth : 24 bits
Compression mode : Lossy
Stream size : 783 MiB (2%)
Title : Dub [License]
Language : Russian
Default : Yes
Forced : Yes

Audio #2
ID : 3
Format : AC-3
Format/Info : Audio Coding 3
Commercial name : Dolby Digital
Codec ID : A_AC3
Duration : 2 h 22 min
Bit rate mode : Constant
Bit rate : 448 kb/s
Channel(s) : 6 channels
Channel layout : L R C LFE Ls Rs
Sampling rate : 48.0 kHz
Frame rate : 31.250 FPS (1536 SPF)
Compression mode : Lossy
Stream size : 457 MiB (1%)
Title : Dub [License]
Language : Russian
Service kind : Complete Main
Default : No
Forced : No

Audio #3
ID : 4
Format : MLP FBA 16-ch
Format/Info : Meridian Lossless Packing FBA with 16-channel presentation
Commercial name : Dolby TrueHD with Dolby Atmos
Codec ID : A_TRUEHD
Duration : 2 h 22 min
Bit rate mode : Variable
Bit rate : 4 363 kb/s
Maximum bit rate : 6 249 kb/s
Channel(s) : 8 channels
Channel layout : L R C LFE Ls Rs Lb Rb
Sampling rate : 48.0 kHz
Frame rate : 1 200.000 FPS (40 SPF)
Compression mode : Lossless
Stream size : 4.34 GiB (9%)
Title : Original
Language : English
Default : No
Forced : No
Number of dynamic objects : 13
Bed channel count : 1 channel
Bed channel configuration : LFE

Audio #4
ID : 5
Format : AC-3
Format/Info : Audio Coding 3
Commercial name : Dolby Digital
Codec ID : A_AC3
Duration : 2 h 22 min
Bit rate mode : Constant
Bit rate : 640 kb/s
Channel(s) : 6 channels
Channel layout : L R C LFE Ls Rs
Sampling rate : 48.0 kHz
Frame rate : 31.250 FPS (1536 SPF)
Compression mode : Lossy
Stream size : 652 MiB (1%)
Language : English
Service kind : Complete Main
Default : No
Forced : No

Text #1
ID : 6
Format : UTF-8
Codec ID : S_TEXT/UTF8
Codec ID/Info : UTF-8 Plain Text
Duration : 2 h 0 min
Bit rate : 2 b/s
Count of elements : 36
Stream size : 2.09 KiB (0%)
Title : Forced
Language : Russian
Default : Yes
Forced : Yes

Text #2
ID : 7
Format : UTF-8
Codec ID : S_TEXT/UTF8
Codec ID/Info : UTF-8 Plain Text
Duration : 2 h 22 min
Bit rate : 71 b/s
Count of elements : 1242
Stream size : 74.8 KiB (0%)
Title : Full
Language : Russian
Default : No
Forced : No

Text #3
ID : 8
Format : UTF-8
Codec ID : S_TEXT/UTF8
Codec ID/Info : UTF-8 Plain Text
Duration : 2 h 11 min
Bit rate : 42 b/s
Count of elements : 1215
Stream size : 40.9 KiB (0%)
Title : Full
Language : English
Default : No
Forced : No

Menu
00:00:00.000 : en:Opening Logos
00:00:24.107 : en:Attack of the Clones
00:01:51.194 : en:Return to Coruscant
00:04:22.762 : en:Chancellor's Meeting
00:07:00.670 : en:Old Friends
00:10:29.628 : en:Assassins
00:14:20.568 : en:Speeder Chase
00:21:35.961 : en:Into the Club
00:24:48.904 : en:New Assignments
00:29:46.534 : en:Travelling Incognito
00:31:34.142 : en:Dex's Diner
00:33:49.193 : en:Jedi Archives
00:34:51.172 : en:"Encouraged to Love"
00:36:05.788 : en:Yoda and the Younglings
00:38:26.595 : en:Return to Naboo
00:39:26.030 : en:Audience With the Queen
00:40:57.037 : en:Kamino Arrival
00:42:13.447 : en:Meeting Lama Su
00:44:02.681 : en:Stolen Kiss
00:45:51.081 : en:Inspecting the Clones
00:47:50.742 : en:Teasing a Senator
00:50:21.685 : en:Jango's Apartment
00:53:02.095 : en:Forbidden Love
00:56:45.485 : en:Obi-Wan's Report
00:58:57.367 : en:Nightmare
01:00:46.726 : en:Obi-Wan vs. Jango
01:03:41.859 : en:Back to Tatooine
01:06:25.022 : en:Asteroid Chase
01:11:19.441 : en:Lars' Homestead
01:14:02.020 : en:Anakin's Search
01:15:24.144 : en:Dooku's Separatist Plot
01:17:49.539 : en:Tusken Camp
01:21:41.021 : en:Out of Range
01:23:47.564 : en:"You're Not All-Powerful"
01:28:10.827 : en:Enemies Revealed
01:30:53.573 : en:Obi-Wan Captive
01:33:39.155 : en:Emergency Powers
01:35:28.514 : en:Droid Factory
01:42:45.534 : en:Love Pledge
01:45:14.683 : en:The Arena
01:49:54.295 : en:"This Party Is Over"
01:56:23.142 : en:Yoda's Cavalry
01:57:48.269 : en:Clone War
02:00:29.847 : en:War Room
02:04:49.648 : en:Duel With Dooku
02:07:42.613 : en:Master Yoda
02:11:24.334 : en:"Well Done, Lord Tyranus"
02:12:55.550 : en:"Begun, the Clone War Has"
02:14:49.915 : en:Secret Union
02:15:55.605 : en:End Credits

pb.wtf



Скачать Звездные войны: Эпизод 2: Атака клонов через торрент https://img15.lostpic.net/2020/04/01/8d937f5a8b4e9ccfb12a920a0b061706.jpg Скачать, смотреть онлайн Звездные войны: Эпизод 2: Атака клонов бесплантно в хорошем качестве Описание: Давным-давно, в далёкой-далёкой галактике нарастают неустройства и конфликты. Множество систем грозятся выйти из союза в пользу ... 10 10 6
Info! Золотая раздача, скачанное не засчитывается.
Торрент: Зарегистрирован [2020-04-01 09:42] · скачан: 180 раз
Статус: √ проверено
Размер: 48 GB
Как cкачать? Как скачать Звездные войны: Эпизод 2: Атака клонов через торрент | UTorrent

% Раздел Тема Автор DL S | L
Ultra HD (UHD: 2K, 4K, 8K) — видео сверхвысокой чёткости [ 13.11 GB ] Звездные войны: Эпизод 2: Атака клонов / Star Wars: Episode II - Attack of the Clones [2002 UHD BDRip 2160p] DUB [] bober100 Скачать
1 | 0
Фильмы 2001-2005 [ 3.12 GB ] Звездные войны. Эпизод 2: Атака клонов / Star Wars: Episode II - Attack of the Clones [2002 BDRip-AVC BD CEE MVO AVO] от ExKinoRay morfyi Скачать
2 | 0

28-11-2019 20:33  

Отключить вcю реклaмy на сайте

01-04-2020 16:07 Звездные войны: Эпизод 2: Атака клонов Скачать торрент  

да этот эпизод я помню... это еще те звездные войны которые я принимал, принимаю как официальную франшизу тех, который ну совсем древнии шесть частей, которые смотрели еще в видеосалонах на видеокасетах...pb.wtf



    Дорогой пользователь! Огромная просьба, поблагодарите релизера, оцените раздачу и оставьте свои комментарий, если Вы скачали Звездные войны: Эпизод 2: Атака клонов через торрент бесплатно!
    Комментировать посты могут только пользователи прошедшие не сложную регистрацию
    Показать сообщения:    

    Звездные войны: Эпизод 2: Атака клонов через торрент
    Скачать бесплатно Звездные войны: Эпизод 2: Атака клонов
    Звездные войны: Эпизод 2: Атака клонов скачать торрент
    Звездные войны: Эпизод 2: Атака клонов смотреть онлайн
    Cкачать фильм Звездные войны: Эпизод 2: Атака клонов бесплатно
    Звездные войны: Эпизод 2: Атака клонов скачать торрент в хорошем качестве
    Звездные войны: Эпизод 2: Атака клонов смотреть онлайн бесплатно в хорошем качестве


    Вы не можете начинать темы
    Вы не можете отвечать на сообщения
    Вы не можете редактировать свои сообщения
    Вы не можете удалять свои сообщения
    Вы не можете голосовать в опросах
    Вы не можете прикреплять файлы к сообщениям
    Вы можете скачивать файлы