Ссылка на приватное зеркало нашего сайта всего за 1$. Внимание количество ограничено!!!

2 сезон

iTunes

1 сезон

1

2 сезон

2 сезон

iTunes

1 сезон

RePack

30

Ultimate

ВАЖНО

ИГРА 18+

pack

RePack

MK11
pack

Забери бонус

RePack

jed

!!Акция!!

Alien_Rage

RePack

fifa19

RePack

Assassins Creed: Odyssey

RePack

NEED FOR SPEED™ PAYBACK

4 сезон

9 сезон

Бесстыжие 9 сезон

Все сериалы

все сериалы на PB.wtf

RePack

FAR CRY 5
  

Хороший лжец / The Good Liar (Билл Кондон) [2019, драма, детектив, BD Remux 1080p] DUB (rus, ukr) [Лицензия] pb.wtf

Хороший лжец через торрент pb.wtf

Размер: 28.23 GB | Добавлен: 7 мес. назад | Торрент скачан:18 раз
Скачать  

01-04-2020 13:41 Хороший лжец Скачать торрент  

Хороший лжец | The Good Liar
Год выпуска: 2019
Страна: Великобритания, США, Германия
Студия: BRON Studios, Creative Wealth Media Finance, New Line Cinema
Жанр: драма, детектив
Продолжительность: 01:49:37
Перевод: Дублированный | Лицензия
Субтитры: Русские (Forced, Full), украинские (forced), английские

Режиссер: Билл Кондон

rating

В ролях: Хелен Миррен, Иэн Маккеллен, Рассел Тови, Джим Картер, Марк Льюис Джонс, Лори Дэвидсон, Фил Данстер, Лусиан Мсамати, Йоуханнес Хёйкьюр Йоуханнессон, Тунджи Касим

Описание: Профессиональный мошенник Рой Кортни едва верит своей удаче, когда знакомится в сети с богатой вдовой Бетти Маклиш. Очаровав вдову и получив доступ ко всем ее ресурсам, Рой ловит себя на том, что она ему небезразлична.

Качество: BD Remux 1080p
Формат: MKV

Видео: MPEG-4 AVC, 1920x1080, 34.1 Mbit/s, 23.976 fps
Аудио #01: 48 kHz, AC3, 5.1, 448 Kbps | Дублированный | RUS |
Аудио #02: 48 kHz, AC3, 2.0, 192 Kbps | Дублированный | UKR |
Аудио #03: 48 kHz, DTS-HD MA, 5.1, 2141 Kbps | Оригинал | ENG |
скриншот  скриншот  скриншот  скриншот  скриншот  

General
Unique ID : 285678127573987129505485243934492190940 (0xD6EB9B251E24A8E34CED40E4BEB5E8DC)
Complete name : E:Video111BackupThe.Good.Liar.2019.Lic.BDREMUX.1080p.seleZen.mkv
Format : Matroska
Format version : Version 4
File size : 28.2 GiB
Duration : 1 h 49 min
Overall bit rate mode : Variable
Overall bit rate : 36.9 Mb/s
Movie name : The Good Liar 2019 from селезень
Encoded date : UTC 2020-04-01 12:03:03
Writing application : mkvmerge v40.0.0 ('Old Town Road + Pony') 64-bit
Writing library : libebml v1.3.9 + libmatroska v1.5.2

Video
ID : 1
Format : AVC
Format/Info : Advanced Video Codec
Format profile : High@L4.1
Format settings : CABAC / 4 Ref Frames
Format settings, CABAC : Yes
Format settings, Reference : 4 frames
Codec ID : V_MPEG4/ISO/AVC
Duration : 1 h 49 min
Bit rate mode : Variable
Bit rate : 34.1 Mb/s
Maximum bit rate : 37.0 Mb/s
Width : 1 920 pixels
Height : 1 080 pixels
Display aspect ratio : 16:9
Frame rate mode : Constant
Frame rate : 23.976 (24000/1001) FPS
Color space : YUV
Chroma subsampling : 4:2:0
Bit depth : 8 bits
Scan type : Progressive
Bits/(Pixel*Frame) : 0.686
Stream size : 26.1 GiB (92%)
Language : English
Default : Yes
Forced : No

Audio #1
ID : 2
Format : AC-3
Format/Info : Audio Coding 3
Commercial name : Dolby Digital
Codec ID : A_AC3
Duration : 1 h 49 min
Bit rate mode : Constant
Bit rate : 448 kb/s
Channel(s) : 6 channels
Channel layout : L R C LFE Ls Rs
Sampling rate : 48.0 kHz
Frame rate : 31.250 FPS (1536 SPF)
Compression mode : Lossy
Stream size : 351 MiB (1%)
Title : Dub [License]
Language : Russian
Service kind : Complete Main
Default : Yes
Forced : Yes

Audio #2
ID : 3
Format : AC-3
Format/Info : Audio Coding 3
Commercial name : Dolby Digital
Codec ID : A_AC3
Duration : 1 h 49 min
Bit rate mode : Constant
Bit rate : 192 kb/s
Channel(s) : 2 channels
Channel layout : L R
Sampling rate : 48.0 kHz
Frame rate : 31.250 FPS (1536 SPF)
Compression mode : Lossy
Stream size : 151 MiB (1%)
Title : Dub
Language : Ukrainian
Service kind : Complete Main
Default : No
Forced : No

Audio #3
ID : 4
Format : DTS XLL
Format/Info : Digital Theater Systems
Commercial name : DTS-HD Master Audio
Codec ID : A_DTS
Duration : 1 h 49 min
Bit rate mode : Variable
Bit rate : 2 141 kb/s
Channel(s) : 6 channels
Channel layout : C L R Ls Rs LFE
Sampling rate : 48.0 kHz
Frame rate : 93.750 FPS (512 SPF)
Bit depth : 16 bits
Compression mode : Lossless
Stream size : 1.64 GiB (6%)
Title : Original
Language : English
Default : No
Forced : No

Text #1
ID : 5
Format : UTF-8
Codec ID : S_TEXT/UTF8
Codec ID/Info : UTF-8 Plain Text
Duration : 1 h 38 min
Bit rate : 4 b/s
Count of elements : 88
Stream size : 3.59 KiB (0%)
Title : Forced
Language : Russian
Default : Yes
Forced : Yes

Text #2
ID : 6
Format : UTF-8
Codec ID : S_TEXT/UTF8
Codec ID/Info : UTF-8 Plain Text
Duration : 1 h 48 min
Bit rate : 88 b/s
Count of elements : 1200
Stream size : 70.3 KiB (0%)
Title : Full
Language : Russian
Default : No
Forced : No

Text #3
ID : 7
Format : UTF-8
Codec ID : S_TEXT/UTF8
Codec ID/Info : UTF-8 Plain Text
Duration : 1 h 48 min
Bit rate : 4 b/s
Count of elements : 82
Stream size : 3.33 KiB (0%)
Title : Forced
Language : Ukrainian
Default : No
Forced : No

Text #4
ID : 8
Format : UTF-8
Codec ID : S_TEXT/UTF8
Codec ID/Info : UTF-8 Plain Text
Duration : 1 h 41 min
Bit rate : 54 b/s
Count of elements : 1374
Stream size : 40.8 KiB (0%)
Title : Full
Language : English
Default : No
Forced : No

Text #5
ID : 9
Format : UTF-8
Codec ID : S_TEXT/UTF8
Codec ID/Info : UTF-8 Plain Text
Duration : 1 h 43 min
Bit rate : 59 b/s
Count of elements : 1544
Stream size : 45.3 KiB (0%)
Title : SDH
Language : English
Default : No
Forced : No

Menu
00:00:00.000 : en:00:00:00.000
00:07:26.029 : en:00:07:26.029
00:17:30.091 : en:00:17:30.091
00:26:54.112 : en:00:26:54.112
00:34:31.653 : en:00:34:31.653
00:43:15.843 : en:00:43:15.843
00:52:14.340 : en:00:52:14.340
01:00:50.772 : en:01:00:50.772
01:08:18.177 : en:01:08:18.177
01:17:54.712 : en:01:17:54.712
01:27:05.720 : en:01:27:05.720
01:36:41.838 : en:01:36:41.838
01:45:10.179 : en:01:45:10.179

pb.wtf



Скачать Хороший лжец через торрент https://i6.imageban.ru/out/2020/01/30/7bcc80e909b5e617b1c829d75a3fb1a1.png Скачать фильм Хороший лжец через торрент бесплантно в хорошем качестве Описание: Профессиональный мошенник Рой Кортни едва верит своей удаче, когда знакомится в сети с богатой вдовой Бетти Маклиш. Очаровав ... 10 10 3
Торрент: Зарегистрирован [2020-04-01 13:41] · скачан: 18 раз
Статус: √ проверено
Размер: 28.23 GB
Как cкачать? Как скачать Хороший лжец через торрент | qTorrent

% Раздел Тема Автор DL S | L
Фильмы 2019-2020 [DVDrip, WEB-DLRip, HDrip] (DUB, MVO) [ 1.46 GB ] Хороший лжец / The Good Liar [2019 BDRip] - [] Twi7ter Скачать
3 | 0
Фильмы 2019-2020 [DVDrip, WEB-DLRip, HDrip] (DUB, MVO) [ 751 MB ] Хороший лжец / The Good Liar [2019 BDRip] DUB [ BD EUR] bober100 Скачать
1 | 0
Фильмы 2019-2020 [DVDrip, WEB-DLRip, HDrip] (DUB, MVO) [ 2.22 GB ] Хороший лжец / The Good Liar [2019 BDRip-AVC] DUB bober100 Скачать
5 | 0
Фильмы [HD 720p, 1080p] (Хороший звук DUB, MVO) [ 10.82 GB ] Хороший лжец / The Good Liar [2019 BDRip 1080p] DUB [] bober100 Скачать
2 | 0
Фильмы [HD 720p, 1080p] (Хороший звук DUB, MVO) [ 5.84 GB ] Хороший лжец / The Good Liar [2019 BDRip 720p] DUB [] bober100 Скачать
3 | 0
Фильмы 2019-2020 [DVDrip, WEB-DLRip, HDrip] (DUB, MVO) [ 1.46 GB ] Хороший лжец / The Good Liar [2019 BDRip] DUB [ BD EUR] bober100 Скачать
2 | 0

28-11-2019 20:33  

Отключить всю рекламу на сайте

    Дорогой пользователь! Огромная просьба, поблагодарите релизера, оцените раздачу и оставьте свои комментарий, если Вы скачали Хороший лжец через торрент бесплатно! Внесите свою лепту в развитие PiratBit!
    Комментировать посты могут только пользователи прошедшие не сложную регистрацию
    Показать сообщения:    

    Хороший лжец через торрент
    Скачать бесплатно Хороший лжец
    Хороший лжец скачать торрент
    Хороший лжец смотреть онлайн
    Cкачать фильм Хороший лжец бесплатно
    Хороший лжец скачать торрент в хорошем качестве
    Хороший лжец смотреть онлайн бесплатно в хорошем качестве


    Вы не можете начинать темы
    Вы не можете отвечать на сообщения
    Вы не можете редактировать свои сообщения
    Вы не можете удалять свои сообщения
    Вы не можете голосовать в опросах
    Вы не можете прикреплять файлы к сообщениям
    Вы можете скачивать файлы