Ссылка на приватное зеркало нашего сайта всего за 1$. Внимание количество ограничено!!!

2 сезон

iTunes

1 сезон

1

iTunes

iTunes

iTunes

1 сезон

RePack

30

ИГРА 18+

pack

ВАЖНО

!!Акция!!

Alien_RageХит недели

RePack

MK11
pack

Забери бонус

RePack

jed

!!Акция!!

Alien_Rage

RePack

fifa19

RePack

Assassins Creed: Odyssey

RePack

NEED FOR SPEED™ PAYBACK

4 сезон

9 сезон

Бесстыжие 9 сезон

Все сериалы

все сериалы на PB.wtf

RePack

FAR CRY 5
  

Великолепная пятерка / Сезон: 3 / Серии: 1-10 из 10 (Арменак Назикян) [2020, Детектив, драма, SATRip] pb.wtf

Великолепная пятерка через торрент pb.wtf

Размер: 4.98 GB | Добавлен: 6 мес. назад | Торрент скачан:3 раза
Скачать  

01-04-2020 16:51 Великолепная пятерка Скачать торрент  

Великолепная пятерка
Год выпуска: 2020
Страна: Россия
Жанр: Детектив, драма
Продолжительность: ~ 00:40:00 серия
Субтитры: отсутствуют

Режиссер: Арменак Назикян



В ролях: Павел Григорьев, Андрей Горбачёв, Алексей Красноцветов, Нодар Джанелидзе, Константин Гришанов, Егор Кутенков, Ева Жук, Мария Минакова, Илья Рябов, Алёна Леонтьева, Николай Сороканов, Ирина Улановская, Ирина Веснина, Юрий Уткин, Владимир Ковтун, Светлана Терентьева, Олеся Бережная, Анастасия Ярёменко, Валентина Иккерт, Роман Притула, Виктория Горбач-Орлова, Арсений Бородин, Данила Пестриков, Арсений Александров

Описание: Главные герои – сотрудники одного из Санкт-Петербургских отделов полиции. Пятерка – потому что оперов пять. Майор Павел Шапошников, капитаны Дмитрий Красавченко и Тимур Бубнов, старлей Антон Ветров и лейтенант Владимир Кузьмин. Пять разных характеров, которые сплотил их командир, подполковник Андрей Голованов. Человек с большим юмором и богатым прошлым. Он еще помнит, когда в Петербурге были улицы разбитых фонарей. Они фанаты своего дела, профессионалы в разных направлениях, с разными взглядами на жизнь и увлечениями. Отдел – не рафинированное подразделение, а обычный отдел полиции. Туда могут приходить люди с жалобами и заявлениями. Месть, зависть, страх, любострастие, корысть толкают одних на преступления, а честь, совесть, справедливость и смелость заставляют других противостоять злу. Герои "Великолепной Пятерки" наказывают зло ежедневно. Удивительно, но в этой рутине у них остается время на любовь, дружбу и юмор...

Качество: SATRip
Формат: AVI

Видео: XviD, ~ 1610 Кбит/с, 720x400, 25 кадр/с
Аудио: AC3 Dolby Digital, 48.0 kHz, 2/0 (L,R) ch, 192 kbps
скриншот  скриншот  скриншот  скриншот  скриншот  

General
Complete name: C:65.Великолепная пятёрка.s03.E01.(2020).SATRip.by.Nicodem.Files-x.avi
Format: AVI
Format/Info: Audio Video Interleave
File size: 510 MiB
Duration: 39mn 22s
Overall bit rate: 1 811 Kbps
Writing application: VirtualDubMod 1.5.10.3 | www.virtualdub-fr.org || (build 2550/release)
Writing library: VirtualDubMod build 2550/release

Video
ID: 0
Format: MPEG-4 Visual
Format profile: Advanced Simple@L5
Format settings, BVOP: 1
Format settings, QPel: No
Format settings, GMC: No warppoints
Format settings, Matrix: Custom
Codec ID: XVID
Codec ID/Hint: XviD
Duration: 39mn 22s
Bit rate: 1 610 Kbps
Width: 720 pixels
Height: 400 pixels
Display aspect ratio: 16:9
Frame rate: 25.000 fps
Color space: YUV
Chroma subsampling: 4:2:0
Bit depth: 8 bits
Scan type: Progressive
Compression mode: Lossy
Bits/(Pixel*Frame): 0.224
Stream size: 453 MiB (89%)
Writing library: XviD 73

Audio
ID: 1
Format: AC-3
Format/Info: Audio Coding 3
Mode extension: CM (complete main)
Codec ID: 2000
Duration: 39mn 22s
Bit rate mode: Constant
Bit rate: 192 Kbps
Channel(s): 2 channels
Channel positions: Front: L R
Sampling rate: 48.0 KHz
Bit depth: 16 bits
Compression mode: Lossy
Stream size: 54.1 MiB (11%)
Alignment: Split accross interleaves
Interleave, duration: 40 ms (1.00 video frame)
Interleave, preload duration: 500 ms

Внимание! Раздача ведётся путём добавления новых серий; при каждом добавлении создfётся новый торрент. Чтобы начать докачку новой серии, пользователям необходимо сделать следующее: (1) остановить скачивание, (2) удалить старый торрент у себя из клиента (старые серии удалять не надо), (3) скачать новый торрент и запустить его у себя в клиенте вместо старого, при этом указать клиенту путь в старую папку куда и должно происходить скачивание новых серий.

Ваш клиент при этом должен произвести хеширование (проверку) старой папки (если не производит сам - помогите ему сделать это), и будет докачивать только те серии которых у вас ещё нет. Старые серии при этом не удаляются, а продолжают раздаваться!

Eсли вы уже удалили старые серии, то предотвратить повторную закачку старых серий можно, отжав галочку в соответсвующих местах при запуске нового торрента.
pb.wtf



Скачать Великолепная пятерка через торрент https://i111.fastpic.ru/big/2020/0401/75/1d4517f8f187ca8d11f381e9b7904875.jpg Скачать фильм Великолепная пятерка через торрент бесплантно в хорошем качестве Описание: Главные герои – сотрудники одного из Санкт-Петербургских отделов полиции. Пятерка – потому что оперов пять. Майор Павел ... 10 10 4
Торрент: Зарегистрирован [2020-04-16 15:56] · скачан: 3 раз
Статус: √ проверено
Размер: 4.98 GB
Как cкачать? Как скачать Великолепная пятерка через торрент | qTorrent

% Раздел Тема Автор DL S | L
Наши сериалы [ 6.61 GB ] Великолепная пятерка / Сезон: 3 / Серии: 1-10 из 10 [2020 WEBRip 1080p] bober100 Скачать
1 | 0
Наши сериалы [ 5.02 GB ] Великолепная пятерка / Сезон: 3 / Серии: 1-10 из 10 [2020 WEBRip-AVC] bober100 Скачать
1 | 0
Наши сериалы [ 4.18 GB ] Великолепная пятерка / Сезон: 3 / Серии: 1-10 из 32 [2020 WEBRip-AVC] aleksan55 Скачать
1 | 0

28-11-2019 20:33  

Отключить всю рекламу на сайте

    Дорогой пользователь! Огромная просьба, поблагодарите релизера, оцените раздачу и оставьте свои комментарий, если Вы скачали Великолепная пятерка через торрент бесплатно! Внесите свою лепту в развитие PiratBit!
    Комментировать посты могут только пользователи прошедшие не сложную регистрацию
    Показать сообщения:    

    Великолепная пятерка через торрент
    Скачать бесплатно Великолепная пятерка
    Великолепная пятерка скачать торрент
    Великолепная пятерка смотреть онлайн
    Cкачать фильм Великолепная пятерка бесплатно
    Великолепная пятерка скачать торрент в хорошем качестве
    Великолепная пятерка смотреть онлайн бесплатно в хорошем качестве


    Вы не можете начинать темы
    Вы не можете отвечать на сообщения
    Вы не можете редактировать свои сообщения
    Вы не можете удалять свои сообщения
    Вы не можете голосовать в опросах
    Вы не можете прикреплять файлы к сообщениям
    Вы можете скачивать файлы