Всегда рабочее зеркало без VPN и Proxy просто перед .vidak.icu напиши любое слово или цифру, Пример http://72h6.vidak.icu

Лицензия

MVO

1 сезон

1

1 сезон

iTunes

1 сезон

13

1 сезон

Deluxe

pack

Рекомендуем

Repack

30

ВАЖНО

RePack

MK11

RePack

jed

RePack

fifa19

RePack

RDR2

RePack

NEED FOR SPEED™ PAYBACK

Кинопоиск HD

6 сезон

 Острые козырьки 6 сезон

Все сериалы

все сериалы на PB.wtf

RePack

FAR CRY 5
  
Magnet ссылка

Звездные войны: Эпизод 2: Атака клонов / Star Wars: Episode II - Attack of the Clones (Джордж Лукас) [2002, Фантастика, фэнтези, боевик, приключения, UHD BDRip 2160p] DUB [Лицензия] pb.wtf

Звездные войны: Эпизод 2: Атака клонов через торрент pb.wtf

Размер: 13.11 GB | Добавлен: 2 года 4 мес. назад | Торрент скачан:13 раз
Смотреть онлайн Звездные войны: Эпизод 2: Атака клонов | Скачать    Ребята, помогите собрать деньги на оплату серверов!!!

01-04-2020 17:45 Звездные войны: Эпизод 2: Атака клонов Скачать торрент  

Звездные войны: Эпизод 2: Атака клонов | Star Wars: Episode II - Attack of the Clones
Год выпуска: 2002
Страна: США
Студия: Lucasfilm Ltd.
Жанр: Фантастика, фэнтези, боевик, приключения
Продолжительность: 02:22:30
Перевод: Дублированный | Лицензия
Субтитры: Русские (Forced, Full), английские

Режиссер: Джордж Лукас

rating

В ролях: Эван МакГрегор, Натали Портман, Хейден Кристенсен, Кристофер Ли, Сэмюэл Л. Джексон, Фрэнк Оз, Иэн МакДайармид, Пернилла Аугуст, Темуэра Моррисон, Дэниэл Логан, Джимми Смитс, Джек Томпсон, Лианна Уолсмен, Ахмед Бест, Роуз Бирн, Оливер Форд Дэвис, Рон Фальк, Джей Лагайя, Эндрю Сиком, Энтони Дэниелс, Сайлас Карсон, Айеша Дхаркер

Описание: Давным-давно, в далёкой-далёкой галактике нарастают неустройства и конфликты. Множество систем грозятся выйти из союза в пользу сепаратистского движения, возглавляемого графом Дуку. Рыцарям джедайского ордена становится всё труднее сохранять мир. Назревает вопрос создания республиканской армии. Противница милитаристской идеи, сенатор Падме Амидала, подверглась акту ликвидации во время прибытия на Корусант. На защиту высокопоставленной персоны были привлечены два джедая: учитель – Оби-Ван Кеноби и Энакин Скайуокер – его падаван. Детская привязанность Энакина к Падме перерастает в более сильные чувства молодого юноши. Расследование покушения приводит к тому, что Оби-Ван отправляется на поиски заказчика, а Энакин и Падме улетают на прекрасную планету Набу, где у них разворачивается красивый роман. Цепь расследований Оби-Вана приводит его к обескураживающим новостям: он узнаёт о готовящейся армии клонов на планете Камино и армии дроидов на Джеонозисе, а также – что лорд-ситх Дарт Сидиус сейчас управляет Галактическим Сенатом… В связи с нарастающим конфликтом Галактический Сенат налагает особые полномочия на сенатора Палпатина, который сообщает, что для возвращения мира Галактике необходима АТАКА КЛОНОВ. Энакин Скайуокер теряет мать и обретает всё больший страх потерять любимую. Тёмная сторона Силы насаждает плевела гнева и ненависти в сердце юноши… и окутывает Галактику…

Качество: UHD BDRip 2160p
Формат: MKV

Видео: 3840x1608 at 23.976 fps, MPEG-H HEVC HDR Video, 12300 kbps avg
Аудио #01: 48 kHz, AC3, 5.1, 448 Kbps | Лицензия | RUS |
Аудио #02: 48 kHz, AC3, 5.1, 448 Kbps | Оригинал | ENG |
скриншот  скриншот  скриншот  скриншот  

Общее
Уникальный идентификатор : 237481343329814677728112093569796595235 (0xB2A93E378E5FFA648C6BD5FD98D4DE23)
Полное имя : D:\Новая папкаVid\Новая_Мои раздачи\Star.Wars.Episode.II.Attack.Of.The.Clones.2002.2160p.BDRip.x265.10bit.HDR.Master5.mkv
Формат : Matroska
Версия формата : Version 4
Размер файла : 13,1 Гбайт
Продолжительность : 2 ч. 22 м.
Общий поток : 13,2 Мбит/сек
Название фильма : Star.Wars.Episode.II.Attack.Of.The.Clones.2002.2160p.BDRip.x265.10bit.HDR.Master5
Дата кодирования : UTC 2019-12-08 11:58:34
Программа кодирования : mkvmerge v7.9.0 ('Birds') 64bit
Библиотека кодирования : libebml v1.3.1 + libmatroska v1.4.2
Обложка : Yes
Attachments : cover2.jpg

Видео
Идентификатор : 1
Формат : HEVC
Формат/Информация : High Efficiency Video Coding
Профиль формата : Main [email protected]@Main
Идентификатор кодека : V_MPEGH/ISO/HEVC
Продолжительность : 2 ч. 22 м.
Битрейт : 12,3 Мбит/сек
Ширина : 3840 пикселей
Высота : 1608 пикселей
Соотношение сторон : 2,40:1
Режим частоты кадров : Постоянный
Частота кадров : 23,976 (24000/1001) кадра/сек
Цветовое пространство : YUV
Субдискретизация насыщенности : 4:2:0
Битовая глубина : 10 бит
Бит/(Пиксели*Кадры) : 0.083
Размер потока : 12,2 Гбайт (93%)
Заголовок : Star.Wars.Episode.II.Attack.Of.The.Clones.2002.2160p.BDRip.x265.10bit.HDR.Master5
Библиотека кодирования : x265 3.2+9-971180b100f8:[Windows][MSVC 1923][64 bit] 10bit
Настройки программы : cpuid=1111039 / frame-threads=4 / numa-pools=0,28 / wpp / no-pmode / no-pme / no-psnr / no-ssim / log-level=2 / input-csp=1 / input-res=3840x1608 / interlace=0 / total-frames=0 / level-idc=0 / high-tier=1 / uhd-bd=0 / ref=5 / no-allow-non-conformance / repeat-headers / annexb / no-aud / no-hrd / info / hash=0 / no-temporal-layers / open-gop / min-keyint=23 / keyint=250 / gop-lookahead=0 / bframes=8 / b-adapt=2 / b-pyramid / bframe-bias=0 / rc-lookahead=40 / lookahead-slices=0 / scenecut=40 / radl=0 / no-splice / no-intra-refresh / ctu=64 / min-cu-size=8 / no-rect / no-amp / max-tu-size=32 / tu-inter-depth=3 / tu-intra-depth=3 / limit-tu=0 / rdoq-level=1 / dynamic-rd=0.00 / no-ssim-rd / signhide / no-tskip / nr-intra=0 / nr-inter=0 / no-constrained-intra / strong-intra-smoothing / max-merge=5 / limit-refs=0 / no-limit-modes / me=3 / subme=4 / merange=57 / temporal-mvp / no-frame-dup / no-hme / weightp / weightb / no-analyze-src-pics / deblock=0:0 / no-sao / no-sao-non-deblock / rd=6 / selective-sao=0 / no-early-skip / rskip / no-fast-intra / no-tskip-fast / no-cu-lossless / b-intra / no-splitrd-skip / rdpenalty=0 / psy-rd=4.00 / psy-rdoq=8.00 / no-rd-refine / no-lossless / cbqpoffs=0 / crqpoffs=0 / rc=crf / crf=10.0 / qcomp=0.60 / qpstep=4 / stats-write=0 / stats-read=0 / ipratio=1.40 / pbratio=1.30 / aq-mode=2 / aq-strength=1.00 / cutree / zone-count=0 / no-strict-cbr / qg-size=32 / no-rc-grain / qpmax=69 / qpmin=0 / no-const-vbv / sar=0 / overscan=0 / videoformat=5 / range=0 / colorprim=9 / transfer=16 / colormatrix=9 / chromaloc=0 / display-window=0 / cll=0,0 / min-luma=0 / max-luma=1023 / log2-max-poc-lsb=8 / vui-timing-info / vui-hrd-info / slices=1 / no-opt-qp-pps / no-opt-ref-list-length-pps / no-multi-pass-opt-rps / scenecut-bias=0.05 / no-opt-cu-delta-qp / no-aq-motion / hdr / hdr-opt / no-dhdr10-opt / no-idr-recovery-sei / analysis-reuse-level=5 / scale-factor=0 / refine-intra=0 / refine-inter=0 / refine-mv=1 / refine-ctu-distortion=0 / no-limit-sao / ctu-info=0 / no-lowpass-dct / refine-analysis-type=0 / copy-pic=1 / max-ausize-factor=1.0 / no-dynamic-refine / no-single-sei / no-hevc-aq / no-svt / no-field / qp-adaptation-range=1.00
Default : Да
Forced : Нет
Цветовой диапазон : Limited
Основные цвета : BT.2020
Характеристики трансфера : PQ
Коэффициенты матрицы : BT.2020 non-constant

Аудио #1
Идентификатор : 2
Формат : AC-3
Формат/Информация : Audio Coding 3
Коммерческое название : Dolby Digital
Идентификатор кодека : A_AC3
Продолжительность : 2 ч. 22 м.
Вид битрейта : Постоянный
Битрейт : 448 Кбит/сек
Каналы : 6 каналов
Channel layout : L R C LFE Ls Rs
Частота : 48,0 КГц
Частота кадров : 31,250 кадров/сек (1536 SPF)
Битовая глубина : 16 бит
Метод сжатия : С потерями
Размер потока : 457 Мбайт (3%)
Язык : Russian
ServiceKind/String : Complete Main
Default : Да
Forced : Нет

Аудио #2
Идентификатор : 3
Формат : AC-3
Формат/Информация : Audio Coding 3
Коммерческое название : Dolby Digital
Идентификатор кодека : A_AC3
Продолжительность : 2 ч. 22 м.
Вид битрейта : Постоянный
Битрейт : 448 Кбит/сек
Каналы : 6 каналов
Channel layout : L R C LFE Ls Rs
Частота : 48,0 КГц
Частота кадров : 31,250 кадров/сек (1536 SPF)
Битовая глубина : 16 бит
Метод сжатия : С потерями
Задержка видео : 1 с. 258 мс.
Размер потока : 456 Мбайт (3%)
Язык : English
ServiceKind/String : Complete Main
Default : Нет
Forced : Нет

Текст #1
Идентификатор : 4
Формат : UTF-8
Идентификатор кодека : S_TEXT/UTF8
Идентификатор кодека/Информация : UTF-8 Plain Text
Продолжительность : 1 ч. 55 м.
Битрейт : 1 бит/сек
ElementCount : 19
Размер потока : 1,02 Кбайт (0%)
Заголовок : rus forced
Язык : Russian
Default : Да
Forced : Нет

Текст #2
Идентификатор : 5
Формат : UTF-8
Идентификатор кодека : S_TEXT/UTF8
Идентификатор кодека/Информация : UTF-8 Plain Text
Продолжительность : 2 ч. 11 м.
Битрейт : 76 бит/сек
ElementCount : 1228
Размер потока : 73,5 Кбайт (0%)
Заголовок : rus full
Язык : Russian
Default : Нет
Forced : Нет

Текст #3
Идентификатор : 6
Формат : UTF-8
Идентификатор кодека : S_TEXT/UTF8
Идентификатор кодека/Информация : UTF-8 Plain Text
Продолжительность : 2 ч. 11 м.
Битрейт : 42 бит/сек
ElementCount : 1219
Размер потока : 41,0 Кбайт (0%)
Язык : English
Default : Нет
Forced : Нет

Меню
00:00:00.000 : :Начало
00:00:23.440 : :Атака клонов
00:01:50.527 : :Возвращение на Корусант
00:04:22.095 : :Встреча у канцлера
00:07:00.002 : :Старые друзья
00:10:28.961 : :Наемные убийцы
00:14:19.900 : :Погоня на спидерах
00:21:35.293 : :В клубе
00:24:48.236 : :Новые поручения
00:29:45.867 : :Путешествие инкогнито
00:31:33.474 : :Закусочная Декса
00:33:48.526 : :Архив джедаев
00:34:50.505 : :"Положено любить"
00:36:05.121 : :Йода и юные ученики
00:38:25.928 : :Возвпащение на Набу
00:39:25.362 : :Аудиенция у королевы
00:40:56.370 : :Прибытие на Камино
00:42:12.780 : :Встреча с Лама Су
00:44:02.014 : :Тайный поцелуй
00:45:50.414 : :Осмотр клонов
00:47:50.075 : :Дразнить сенатора
00:50:21.017 : :Апартаменты Дженго
00:53:01.428 : :Запретная любовь
00:56:44.818 : :Доклад Оби-Вана
00:58:56.699 : :Ночной кошмар
01:00:46.059 : :Оби-Ван против Дженго
01:03:41.192 : :Обратно на Татуин
01:06:24.355 : :Погоня в астероидах
01:11:18.774 : :Ферма Ларсов
01:14:01.353 : :Поиск Энакина
01:15:23.477 : :Сепаратистский заговор Дуку
01:17:48.872 : :Лагерь таскенов
01:21:40.353 : :Вне досягаемости
01:23:46.896 : :"Ты не всесилен"
01:28:10.159 : :Враги разоблачены
01:30:52.905 : :Оби-Ван в плену
01:33:38.487 : :Чрезвычайные полномочия
01:35:27.847 : :Фабрика дроидов
01:42:44.867 : :Признание в любви
01:45:14.016 : :Арена
01:49:53.628 : :"Веселью конец"
01:56:22.475 : :Войска Йоды
01:57:47.602 : :Война клонов
02:00:29.180 : :Командный пункт
02:04:48.981 : :Дуэль с Дуку
02:07:41.945 : :Мастер Йода
02:11:23.667 : :"Замечательно, лорд Тиранус"
02:12:54.883 : :"Война клоническая началась"
02:14:49.247 : :Тайный союз
02:15:54.938 : :Финальные титры

pb.wtf



Скачать Звездные войны: Эпизод 2: Атака клонов через торрент https://img15.lostpic.net/2020/04/01/8d937f5a8b4e9ccfb12a920a0b061706.jpg Скачать, смотреть онлайн Звездные войны: Эпизод 2: Атака клонов бесплантно в хорошем качестве Описание: Давным-давно, в далёкой-далёкой галактике нарастают неустройства и конфликты. Множество систем грозятся выйти из союза в пользу ... 10 10 3
Торрент: Зарегистрирован [2020-04-01 17:45] · скачан: 13 раз
Статус: √ проверено
Размер: 13.11 GB
Как cкачать? Как скачать Звездные войны: Эпизод 2: Атака клонов через торрент | UTorrent

% Раздел Тема Автор DL S | L
Ultra HD (UHD: 2K, 4K, 8K) — видео сверхвысокой чёткости [ 48 GB ] Звездные войны: Эпизод 2: Атака клонов / Star Wars: Episode II - Attack of the Clones [2002 UHD BDRemux 2160p] DUB [] bober100 Скачать
1 | 0
Фильмы 2001-2005 [ 3.12 GB ] Звездные войны. Эпизод 2: Атака клонов / Star Wars: Episode II - Attack of the Clones [2002 BDRip-AVC BD CEE MVO AVO] от ExKinoRay morfyi Скачать
3 | 0

28-11-2019 20:33  

Отключить вcю реклaмy на сайте

    Дорогой пользователь! Огромная просьба, поблагодарите релизера, оцените раздачу и оставьте свои комментарий, если Вы скачали Звездные войны: Эпизод 2: Атака клонов через торрент бесплатно!
    Комментировать посты могут только пользователи прошедшие не сложную регистрацию
    Показать сообщения:    

    Звездные войны: Эпизод 2: Атака клонов через торрент
    Скачать бесплатно Звездные войны: Эпизод 2: Атака клонов
    Звездные войны: Эпизод 2: Атака клонов скачать торрент
    Звездные войны: Эпизод 2: Атака клонов смотреть онлайн
    Cкачать фильм Звездные войны: Эпизод 2: Атака клонов бесплатно
    Звездные войны: Эпизод 2: Атака клонов скачать торрент в хорошем качестве
    Звездные войны: Эпизод 2: Атака клонов смотреть онлайн бесплатно в хорошем качестве


    Вы не можете начинать темы
    Вы не можете отвечать на сообщения
    Вы не можете редактировать свои сообщения
    Вы не можете удалять свои сообщения
    Вы не можете голосовать в опросах
    Вы не можете прикреплять файлы к сообщениям
    Вы можете скачивать файлы