Ссылка на приватное зеркало нашего сайта всего за 1$. Внимание количество ограничено!!!

2 сезон

iTunes

1 сезон

1

iTunes

iTunes

iTunes

1 сезон

RePack

30

ИГРА 18+

pack

ВАЖНО

!!Акция!!

Alien_RageХит недели

RePack

MK11
pack

Забери бонус

RePack

jed

!!Акция!!

Alien_Rage

RePack

fifa19

RePack

Assassins Creed: Odyssey

RePack

NEED FOR SPEED™ PAYBACK

4 сезон

9 сезон

Бесстыжие 9 сезон

Все сериалы

все сериалы на PB.wtf

RePack

FAR CRY 5
  

Проект «Анна Николаевна» / Сезон: 1 / Серии: 1-8 из 8 (Максим Пежемский) [2020, Комедия, фантастика, драма, WEBRip 1080p] pb.wtf

Проект «Анна Николаевна» через торрент pb.wtf

Качают: 2 [ 0 KB/s ]
Размер: 18.24 GB | Добавлен: 5 мес. 25 д. назад | Торрент скачан:206 раз
Скачать  

02-04-2020 08:58 Проект «Анна Николаевна» Скачать торрент  

Проект «Анна Николаевна»
Год выпуска: 2020
Страна: Россия
Жанр: Комедия, фантастика, драма
Продолжительность: ~ 00:50:00
Субтитры: отсутствуют

Режиссер: Максим Пежемский



В ролях: Зоя Бербер, Антон Филипенко, Маруся Климова, Сергей Гармаш, Фёдор Лавров, Кузьма Сапрыкин, Антон Васильев (III), Никита Тарасов, Анна Котова-Дерябина, Ирина Розанова, Алексей Шильников, Дмитрий Поднозов, Юлия Ауг, Александра Сыдорук, Александр Ильин, Даниил Чибриков, Екатерина Ильина (III), Евгений Санников, Михаил Шеломенцев, Владимир Бирюков, Сергей Епишев, Виктор Цекало, Алиса Хазанова, Юлия Шубарева, Александр Баширов, Дмитрий Быковский-Ромашов, Игорь Хрипунов, Павел Деревянко, Михаил Пореченков, Ксения Каталымова, Борис Каморзин, Сергей Ланбамин, Никита Кологривый, Тимофей Трибунцев, Павел Ворожцов, Ольга Румянцева-Лобанова, Ринат Муталлапов

Описание: Отечественные учёные создали андроида-полицейского. Идеальная во всех отношениях капитан Анна Николаевна Королькевич отправляется служить в провинциальный город, чтобы увидеть реальную жизнь и стать похожей на человека. Коллеги думают, что Анна Николаевна — дочь замминистра, и ничто не предвещает беды, пока очеловечивание не заходит слишком далеко.

Качество: WEBRip 1080p
Формат: MKV

Видео: 1920х804 (2,40:1), 25 fps, AVC MPEG-4 (x264), High@L4.1 ~ 6000 kbps avg, 0.153 bit/pixel
Аудио: 48.0 kHz, AC3 Dolby Digital, 2/0 (L,R) ch, ~ 192 kbps
скриншот  скриншот  скриншот  скриншот  

Общее
Уникальный идентификатор : 251720744839546186577932689180040323077 (0xBD5FA6EA314831D4AB236C95E0CB6005)
Полное имя : C:\Proekt.Anna.Nikolaevna.S01.2020.WEBRip.(1080p).ExKinoRay\Proekt.Anna.Nikolaevna.S01.E01.2020.WEBRip.(1080p).ExKinoRay.mkv
Формат : Matroska
Версия формата : Version 4
Размер файла : 2,25 Гбайт
Продолжительность : 51 м. 55 с.
Общий поток : 6206 Кбит/сек
Дата кодирования : UTC 2020-04-02 00:31:43
Программа кодирования : mkvmerge v6.9.1 ('Blue Panther') 64bit built on Apr 18 2014 18:23:38
Библиотека кодирования : libebml v1.3.0 + libmatroska v1.4.1

Видео
Идентификатор : 1
Формат : AVC
Формат/Информация : Advanced Video Codec
Профиль формата : High@L4.1
Настройки формата : CABAC / 4 Ref Frames
Параметр CABAC формата : Да
Параметр RefFrames формата : 4 кадра
Идентификатор кодека : V_MPEG4/ISO/AVC
Продолжительность : 51 м. 55 с.
Битрейт : 6000 Кбит/сек
Ширина : 1920 пикселей
Высота : 804 пикселя
Соотношение сторон : 2,40:1
Режим частоты кадров : Постоянный
Частота кадров : 25,000 кадров/сек
Цветовое пространство : YUV
Субдискретизация насыщенности : 4:2:0
Битовая глубина : 8 бит
Тип развёртки : Прогрессивная
Бит/(Пиксели*Кадры) : 0.153
Размер потока : 2,14 Гбайт (95%)
Default : Нет
Forced : Нет
Цветовой диапазон : Limited
Основные цвета : BT.709
Характеристики трансфера : BT.709
Коэффициенты матрицы : BT.709

Аудио
Идентификатор : 2
Формат : AC-3
Формат/Информация : Audio Coding 3
Коммерческое название : Dolby Digital
Идентификатор кодека : A_AC3
Продолжительность : 51 м. 55 с.
Вид битрейта : Постоянный
Битрейт : 192 Кбит/сек
Каналы : 2 канала
ChannelLayout : L R
Частота : 48,0 КГц
Частота кадров : 31,250 кадров/сек (1536 SPF)
Битовая глубина : 16 бит
Метод сжатия : С потерями
Размер потока : 71,3 Мбайт (3%)
ServiceKind/String : Complete Main
Default : Да
Forced : Нет

Меню
00:00:00.000 : :Chapter 1

Раздача ведётся путём добавления новых серий, при каждом добавлении создаётся новый торрент. Чтобы начать докачку новой серии, пользователям необходимо сделать следующее:

- Остановить скачивание.
- Удалить старый торрент у себя из клиента (старые серии удалять не надо).
- Скачать новый торрент и запустить его у себя в клиенте вместо старого, при этом указать клиенту путь в старую папку куда и должно происходить скачивание новых серий.

Ваш клиент при этом должен произвести хеширование (проверку) старой папки (если не производит сам - помогите ему сделать это), и будет докачивать только те серии которых у вас ещё нет. Старые серии при этом не удаляются, а продолжают раздаваться!
Если вы уже удалили старые серии, то предотвратить повторную закачку старых серий можно, отжав галочку в соответствующих местах при запуске нового торрента. По возможности, желательно не удалять старые серии как можно дольше, чтобы релизер не столько продолжал раздавать старые серии, а смог сконцентрироваться на новых.
pb.wtf



Скачать Проект «Анна Николаевна» через торрент http://pic1.kartinco.top/images/12/wyjsw.jpg Скачать фильм Проект «Анна Николаевна» через торрент бесплантно в хорошем качестве Описание: Отечественные учёные создали андроида-полицейского. Идеальная во всех отношениях капитан Анна Николаевна Королькевич отправляется ... 10 10 29
Торрент: Зарегистрирован [2020-04-26 11:47] · скачан: 206 раз
Статус: √ проверено
Размер: 18.24 GB
Как cкачать? Как скачать Проект «Анна Николаевна» через торрент | qTorrent

% Раздел Тема Автор DL S | L
Наши сериалы [ 4.35 GB ] Проект «Анна Николаевна» / Сезон: 1 / Серии: 1-8 из 8 [2020 WEBRip] bober100 Скачать
6 | 0
Наши сериалы [ 5.06 GB ] Проект «Анна Николаевна» / Сезон: 1 / Серии: 1-8 из 8 [2020 WEBRip] bober100 Скачать
1 | 2
Наши сериалы [ 5.12 GB ] Проект «Анна Николаевна» / Сезон: 1 / Серии: 1-8 из 8 [2020 WEBRip-AVC] bober100 Скачать
3 | 0
Наши сериалы [ 12.54 GB ] Проект «Анна Николаевна» / Сезон: 1 / Серии: 1-8 из 8 [2020 WEBRip 720p] bober100 Скачать
6 | 0


Последний раз редактировалось: bober100 (2020-04-13 16:22), всего редактировалось 1 раз

28-11-2019 20:33  

Отключить всю рекламу на сайте

    Дорогой пользователь! Огромная просьба, поблагодарите релизера, оцените раздачу и оставьте свои комментарий, если Вы скачали Проект «Анна Николаевна» через торрент бесплатно! Внесите свою лепту в развитие PiratBit!
    Комментировать посты могут только пользователи прошедшие не сложную регистрацию
    Показать сообщения:    

    Проект «Анна Николаевна» через торрент
    Скачать бесплатно Проект «Анна Николаевна»
    Проект «Анна Николаевна» скачать торрент
    Проект «Анна Николаевна» смотреть онлайн
    Cкачать фильм Проект «Анна Николаевна» бесплатно
    Проект «Анна Николаевна» скачать торрент в хорошем качестве
    Проект «Анна Николаевна» смотреть онлайн бесплатно в хорошем качестве


    Вы не можете начинать темы
    Вы не можете отвечать на сообщения
    Вы не можете редактировать свои сообщения
    Вы не можете удалять свои сообщения
    Вы не можете голосовать в опросах
    Вы не можете прикреплять файлы к сообщениям
    Вы можете скачивать файлы