Доктор Стрэндж

Лицензия

Добыча

MVO

Дом дракона

1 сезон

Тор

Лицензия

Мэверик

Лицензия

Там, где раки поют

MVO

Властелин колец

1 сезон

Ultimate

pack

Рекомендуем

30

Repack

ВАЖНО

ВАЖНО

Ghostwire

RePack

jed

RePack

nioh2

RePack

RDR2

RePack

NEED FOR SPEED™ PAYBACK

RePack

скачать торрент

Кинопоиск HD

Острые козырьки 6 сезон

6 сезон

FAR CRY 6

RePack

скачать торрент

Лицензия

скачать торрент

MVO

1

1 сезон

скачать торрент

1 сезон

скачать торрент

Лицензия

  

Проект «Анна Николаевна» / Сезон: 1 / Серии: 1-8 из 8 (Максим Пежемский) [2020, Комедия, фантастика, драма, WEBRip 720p]

Проект «Анна Николаевна» через торрент pb.wtf

Размер: 12.54 GB | Добавлен: 2 года 5 мес. назад | Торрент скачан:512 раз
Смотреть онлайн | Скачать   

02-04-2020 09:12 Проект «Анна Николаевна» Скачать торрент  

Проект «Анна Николаевна»
Год выпуска: 2020
Страна: Россия
Жанр: Комедия, фантастика, драма
Продолжительность: ~ 00:50:00
Субтитры: отсутствуют

Режиссер: Максим Пежемский



В ролях: Зоя Бербер, Антон Филипенко, Маруся Климова, Сергей Гармаш, Фёдор Лавров, Кузьма Сапрыкин, Антон Васильев (III), Никита Тарасов, Анна Котова-Дерябина, Ирина Розанова, Алексей Шильников, Дмитрий Поднозов, Юлия Ауг, Александра Сыдорук, Александр Ильин, Даниил Чибриков, Екатерина Ильина (III), Евгений Санников, Михаил Шеломенцев, Владимир Бирюков, Сергей Епишев, Виктор Цекало, Алиса Хазанова, Юлия Шубарева, Александр Баширов, Дмитрий Быковский-Ромашов, Игорь Хрипунов, Павел Деревянко, Михаил Пореченков, Ксения Каталымова, Борис Каморзин, Сергей Ланбамин, Никита Кологривый, Тимофей Трибунцев, Павел Ворожцов, Ольга Румянцева-Лобанова, Ринат Муталлапов

Описание: Отечественные учёные создали андроида-полицейского. Идеальная во всех отношениях капитан Анна Николаевна Королькевич отправляется служить в провинциальный город, чтобы увидеть реальную жизнь и стать похожей на человека. Коллеги думают, что Анна Николаевна — дочь замминистра, и ничто не предвещает беды, пока очеловечивание не заходит слишком далеко.

Качество: WEBRip 720p
Формат: MKV

Видео: 1280х536 (2,40:1), 25 fps, AVC MPEG-4 (x264), [email protected] ~ 4000 kbps avg, 0.229 bit/pixel
Аудио: 48.0 kHz, AC3 Dolby Digital, 2/0 (L,R) ch, ~ 192 kbps
скриншот  скриншот  скриншот  скриншот  

Общее
Уникальный идентификатор : 229893433628909678496711510608615612270 (0xACF3DD62828851DFB31282D6F2F49F6E)
Полное имя : C:\Proekt.Anna.Nikolaevna.S01.2020.WEBRip.(720p).ExKinoRay\Proekt.Anna.Nikolaevna.S01.E01.2020.WEBRip.(720p).ExKinoRay.mkv
Формат : Matroska
Версия формата : Version 4
Размер файла : 1,52 Гбайт
Продолжительность : 51 м. 55 с.
Общий поток : 4201 Кбит/сек
Дата кодирования : UTC 2020-04-02 07:33:05
Программа кодирования : mkvmerge v6.9.1 ('Blue Panther') 64bit built on Apr 18 2014 18:23:38
Библиотека кодирования : libebml v1.3.0 + libmatroska v1.4.1

Видео
Идентификатор : 1
Формат : AVC
Формат/Информация : Advanced Video Codec
Профиль формата : [email protected]
Настройки формата : CABAC / 9 Ref Frames
Параметр CABAC формата : Да
Параметр RefFrames формата : 9 кадров
Идентификатор кодека : V_MPEG4/ISO/AVC
Продолжительность : 51 м. 55 с.
Битрейт : 3925 Кбит/сек
Ширина : 1280 пикселей
Высота : 536 пикселей
Соотношение сторон : 2,40:1
Режим частоты кадров : Постоянный
Частота кадров : 25,000 кадров/сек
Цветовое пространство : YUV
Субдискретизация насыщенности : 4:2:0
Битовая глубина : 8 бит
Тип развёртки : Прогрессивная
Бит/(Пиксели*Кадры) : 0.229
Размер потока : 1,42 Гбайт (93%)
Default : Нет
Forced : Нет
Цветовой диапазон : Limited
Основные цвета : BT.709
Характеристики трансфера : BT.709
Коэффициенты матрицы : BT.709

Аудио
Идентификатор : 2
Формат : AC-3
Формат/Информация : Audio Coding 3
Коммерческое название : Dolby Digital
Идентификатор кодека : A_AC3
Продолжительность : 51 м. 55 с.
Вид битрейта : Постоянный
Битрейт : 192 Кбит/сек
Каналы : 2 канала
ChannelLayout : L R
Частота : 48,0 КГц
Частота кадров : 31,250 кадров/сек (1536 SPF)
Битовая глубина : 16 бит
Метод сжатия : С потерями
Размер потока : 71,3 Мбайт (5%)
Язык : Russian
ServiceKind/String : Complete Main
Default : Да
Forced : Нет

Меню
00:00:00.000 : :Chapter 1

Раздача ведётся путём добавления новых серий, при каждом добавлении создаётся новый торрент. Чтобы начать докачку новой серии, пользователям необходимо сделать следующее:

- Остановить скачивание.
- Удалить старый торрент у себя из клиента (старые серии удалять не надо).
- Скачать новый торрент и запустить его у себя в клиенте вместо старого, при этом указать клиенту путь в старую папку куда и должно происходить скачивание новых серий.

Ваш клиент при этом должен произвести хеширование (проверку) старой папки (если не производит сам - помогите ему сделать это), и будет докачивать только те серии которых у вас ещё нет. Старые серии при этом не удаляются, а продолжают раздаваться!
Если вы уже удалили старые серии, то предотвратить повторную закачку старых серий можно, отжав галочку в соответствующих местах при запуске нового торрента. По возможности, желательно не удалять старые серии как можно дольше, чтобы релизер не столько продолжал раздавать старые серии, а смог сконцентрироваться на новых.



Скачать Проект «Анна Николаевна» через торрент https://pic1.kartinco.top/images/12/wyjsw.jpg Скачать, смотреть онлайн Проект «Анна Николаевна» бесплантно в хорошем качестве Описание: Отечественные учёные создали андроида-полицейского. Идеальная во всех отношениях капитан Анна Николаевна Королькевич отправляется ... 9.3 10 27
Info! Золотая раздача, скачанное не засчитывается.
Торрент: Зарегистрирован [2020-04-26 12:05] · скачан: 512 раз
Статус: √ проверено
Размер: 12.54 GB
Как cкачать? Как скачать Проект «Анна Николаевна» через торрент | UTorrent

% Раздел Тема Автор DL S | L
Наши сериалы [ 18.8 GB ] Проект «Анна Николаевна» / Сезон: 2 / Серии: 1-8 из 8 | | 1080p, (Версия 18+ bober100 Скачать
1 | 0
Наши сериалы [ 13.36 GB ] Проект «Анна Николаевна» / Сезон: 2 / Серии: 1-8 из 8 | | 720p, (Версия 18+ bober100 Скачать
2 | 0
Наши сериалы [ 34.29 GB ] Проект «Анна Николаевна» / Сезон: 2 / Серии: 1-8 из 8 | | 2160p, (Версия 18+ bober100 Скачать
1 | 0
Зарубежные сериалы [ 8.74 GB ] Проект «Анна Николаевна» / Сезон: 2 / Серии: 1-8 из 8 | | WEBRip-AVC, (Версия 18+ bober100 Скачать
2 | 1
Наши сериалы [ 6.91 GB ] Проект «Анна Николаевна» / Сезон: 2 / Серии: 1-8 из 8 | | WEBRip, (Версия 18+ bober100 Скачать
4 | 1
Наши сериалы [ 855 MB ] Проект «Анна Николаевна» / Сезон: 2 / Серии: 0- из 8 | | WEBRip-AVC, (Версия 18+ bober100 Скачать
1 | 0
Наши сериалы [ 976 MB ] Проект «Анна Николаевна» / Сезон: 2 / Серии: 0- из 8 | | WEBRip, (Версия 18+ bober100 Скачать
2 | 0

28-11-2019 20:33  


Отключить вcю реклaмy на сайте, в т.ч. и в плеере онлайн просмотра!

    Дорогой пользователь! Огромная просьба, поблагодарите релизера, оцените раздачу и оставьте свои комментарий, если Вы скачали Проект «Анна Николаевна» через торрент бесплатно!!
    Комментировать посты могут только пользователи прошедшие не сложную регистрацию
    Показать сообщения:    


    Проект «Анна Николаевна» через торрент
    Скачать бесплатно Проект «Анна Николаевна»
    Проект «Анна Николаевна» скачать торрент
    Проект «Анна Николаевна» смотреть онлайн
    Cкачать фильм Проект «Анна Николаевна» бесплатно
    Проект «Анна Николаевна» скачать торрент в хорошем качестве
    Проект «Анна Николаевна» смотреть онлайн бесплатно в хорошем качестве
    Вы не можете начинать темы
    Вы не можете отвечать на сообщения
    Вы не можете редактировать свои сообщения
    Вы не можете удалять свои сообщения
    Вы не можете голосовать в опросах
    Вы не можете прикреплять файлы к сообщениям
    Вы можете скачивать файлы