2 сезон

iTunes

MVO

1

2 сезон

iTunes

iTunes

1 сезон

RePack

30

Ultimate

ВАЖНО

ИГРА 18+

pack

RePack

MK11
pack

Легкие деньги

RePack

jed

RePack

fifa19

RePack

RDR2

RePack

NEED FOR SPEED™ PAYBACK

4 сезон

9 сезон

Бесстыжие 9 сезон

Все сериалы

все сериалы на PB.wtf

RePack

FAR CRY 5

Anonymous, доброе утро, мы не успеваем собрать деньги на оплату серверов за декабрь и январь, помогите нам пожалуйста в это трудное время. В качестве благодарности мы отключим Вам всю рекламу на сайте (укажите свой ник в строку Ваше имя)!

×
  
Magnet ссылка

Призрак и Тьма / The Ghost and the Darkness (Стивен Хопкинс) [1996, триллер, приключения, BDRip 720p] [Remastered] MVO, DVO, AVO - KORSAR pb.wtf

Призрак и Тьма через торрент pb.wtf

Размер: 9.37 GB | Добавлен: 9 мес. назад | Торрент скачан:53 раза
Скачать  

02-04-2020 15:35 Призрак и Тьма Скачать торрент  

Призрак и Тьма / The Ghost and the Darkness
Год выпуска: 1996
Страна: Германия, США
Жанр: триллер, приключения
Год выпуска: 1996
Продолжительность: 01:49:59
Перевод: Профессиональный (многоголосый, закадровый), Профессиональный (двухголосый, закадровый), Авторский
Субтитры: русские, английские.
Режиссер: Стивен Хопкинс / Stephen Hopkins
В ролях: Майкл Дуглас (Charles Remington), Вэл Килмер (Col. John Henry Patterson), Том Уилкинсон (Robert Beaumont), Джон Кани (Samuel), Бернард Хилл (Dr. David Hawthorne), Брайан МакКарди (Angus Starling), Эмили Мортимер (Helena Patterson), Ом Пури (Abdullah), Генри Селе (Mahina), Курт Эгельхоф (Indian Victim), Сатчу Аннамалаи (Worker #1), Тедди Редди (Worker #2)
Описание: 1898 год. Лондон. Молодой строитель полковник Джон Паттерсон получает срочное задание построить мост через реку в африканской провинции Цаво. Всю жизнь мечтавший о путешествии в Африку, Паттерсон, оставив беременную жену, спешит к месту работ. На месте его ожидает целая армия рабочих.



Качество: BDRip 720p
Контейнер: MKV

Видео: AVC, 1280x606 (2.112), 9000 kbps, 23,976 fps, 0,484 bpp
Аудио №1: русский / AC3 / 5.1 / 48 kHz / 448 kbps / MVO ( Гемини Фильм )
Аудио №2: русский / AC3 / 5.1 / 48 kHz / 448 kbps / DVO ( Лазер Видео )
Аудио №3: русский / AC3 / 2.0 / 48 kHz / 192 kbps / DVO ( OPT )
Аудио №4: русский / AC3 / 2.0 / 48 kHz / 192 kbps / AVO ( Горчаков )
Аудио №4: русский / AC3 / 2.0 / 48 kHz / 640 kbps / AVO ( Гаврилов )
Аудио №4: русский / AC3 / 2.0 / 48 kHz / 640 kbps / AVO ( Живов )
Аудио №7: английский / AC3 / 5.1 / 48 kHz / 640 kbps / 16 bit
Навигация по главам: есть
************************************************************
x264 [info]: frame I:1137 Avg QP:16.44 size:140181
x264 [info]: frame P:36398 Avg QP:17.60 size: 80099
x264 [info]: frame B:120702 Avg QP:19.86 size: 36007
x264 [info]: consecutive B-frames: 2.4% 4.0% 8.9% 24.4% 17.6% 30.1% 6.5% 5.1% 0.5% 0.2% 0.2%
************************************************************
Формат : Matroska
Версия формата : Version 2
Размер файла : 9,37 Гбайт
Продолжительность : 1 ч. 49 м.
Общий поток : 12,2 Мбит/сек
Название фильма : = Призрак и Тьма / The Ghost and the Darkness (1996) BDRip 720p - KORSAR | Remastered =
Дата кодирования : UTC 2020-03-20 07:30:11
Программа кодирования : mkvmerge v5.8.0 ('No Sleep / Pillow') built on Sep 2 2012 15:37:04
Библиотека кодирования : libebml v1.2.3 + libmatroska v1.3.0
Attachment : Yes

Видео
Идентификатор : 1
Формат : AVC
Формат/Информация : Advanced Video Codec
Профиль формата : High@L4.1
Параметр CABAC формата : Да
Параметр ReFrames формата : 10 кадров
Идентификатор кодека : V_MPEG4/ISO/AVC
Продолжительность : 1 ч. 49 м.
Битрейт : 9000 Кбит/сек
Ширина : 1280 пикселей
Высота : 606 пикселей
Соотношение сторон : 2,112
Режим частоты кадров : Постоянный
Частота кадров : 23,976 кадра/сек
Цветовое пространство : YUV
Субдискретизация насыщенности : 4:2:0
Битовая глубина : 8 бит
Тип развёртки : Прогрессивная
Бит/(Пиксели*Кадры) : 0.484
Размер потока : 6,73 Гбайт (72%)
Заголовок : Призрак и Тьма / The Ghost and the Darkness (1996) BDRip 720p - KORSAR | Remastered
Библиотека кодирования : x264 core 158 r2984 3759fcb
Настройки программы : cabac=1 / ref=10 / deblock=1:-3:-3 / analyse=0x3:0x113 / me=umh / subme=11 / psy=1 / psy_rd=1.02:0.10 / mixed_ref=1 / me_range=48 / chroma_me=1 / trellis=2 / 8x8dct=1 / cqm=0 / deadzone=21,11 / fast_pskip=0 / chroma_qp_offset=-3 / threads=12 / lookahead_threads=3 / sliced_threads=0 / nr=0 / decimate=0 / interlaced=0 / bluray_compat=0 / constrained_intra=0 / bframes=10 / b_pyramid=2 / b_adapt=2 / b_bias=0 / direct=3 / weightb=1 / open_gop=0 / weightp=2 / keyint=240 / keyint_min=23 / scenecut=40 / intra_refresh=0 / rc_lookahead=60 / rc=2pass / mbtree=0 / bitrate=9000 / ratetol=1.0 / qcomp=0.66 / qpmin=0 / qpmax=69 / qpstep=4 / cplxblur=20.0 / qblur=0.5 / vbv_maxrate=50000 / vbv_bufsize=62500 / nal_hrd=none / filler=0 / ip_ratio=1.25 / pb_ratio=1.30 / aq=3:0.80
Язык : English
Default : Да
Forced : Нет
Основные цвета : BT.709
Характеристики трансфера : BT.709
Коэффициенты матрицы : BT.709

Аудио #1
Идентификатор : 2
Формат : AC-3
Формат/Информация : Audio Coding 3
Расширение режима : CM (complete main)
Параметр Endianness формата : Big
Идентификатор кодека : A_AC3
Продолжительность : 1 ч. 49 м.
Вид битрейта : Постоянный
Битрейт : 448 Кбит/сек
Каналы : 6 каналов
Расположение каналов : Front: L C R, Side: L R, LFE
Частота : 48,0 КГц
Битовая глубина : 16 бит
Метод сжатия : С потерями
Размер потока : 352 Мбайт (4%)
Заголовок : MVO ( Гемини Фильм )
Язык : Russian
Default : Да
Forced : Нет

Аудио #2
Идентификатор : 3
Формат : AC-3
Формат/Информация : Audio Coding 3
Расширение режима : CM (complete main)
Параметр Endianness формата : Big
Идентификатор кодека : A_AC3
Продолжительность : 1 ч. 49 м.
Вид битрейта : Постоянный
Битрейт : 448 Кбит/сек
Каналы : 6 каналов
Расположение каналов : Front: L C R, Side: L R, LFE
Частота : 48,0 КГц
Битовая глубина : 16 бит
Метод сжатия : С потерями
Размер потока : 352 Мбайт (4%)
Заголовок : DVO ( Лазер Видео )
Язык : Russian
Default : Нет
Forced : Нет

Аудио #3
Идентификатор : 4
Формат : AC-3
Формат/Информация : Audio Coding 3
Расширение режима : CM (complete main)
Параметр Endianness формата : Big
Идентификатор кодека : A_AC3
Продолжительность : 1 ч. 49 м.
Вид битрейта : Постоянный
Битрейт : 192 Кбит/сек
Каналы : 2 канала
Расположение каналов : Front: L R
Частота : 48,0 КГц
Битовая глубина : 16 бит
Метод сжатия : С потерями
Размер потока : 151 Мбайт (2%)
Заголовок : DVO ( OPT )
Язык : Russian
Default : Нет
Forced : Нет

Аудио #4
Идентификатор : 5
Формат : AC-3
Формат/Информация : Audio Coding 3
Расширение режима : CM (complete main)
Параметр Endianness формата : Big
Идентификатор кодека : A_AC3
Продолжительность : 1 ч. 49 м.
Вид битрейта : Постоянный
Битрейт : 192 Кбит/сек
Каналы : 2 канала
Расположение каналов : Front: L R
Частота : 48,0 КГц
Битовая глубина : 16 бит
Метод сжатия : С потерями
Размер потока : 151 Мбайт (2%)
Заголовок : AVO ( Горчаков )
Язык : Russian
Default : Нет
Forced : Нет

Аудио #5
Идентификатор : 6
Формат : AC-3
Формат/Информация : Audio Coding 3
Расширение режима : CM (complete main)
Параметр Endianness формата : Big
Идентификатор кодека : A_AC3
Продолжительность : 1 ч. 49 м.
Вид битрейта : Постоянный
Битрейт : 640 Кбит/сек
Каналы : 6 каналов
Расположение каналов : Front: L C R, Side: L R, LFE
Частота : 48,0 КГц
Битовая глубина : 16 бит
Метод сжатия : С потерями
Размер потока : 504 Мбайт (5%)
Заголовок : AVO ( Гаврилов )
Язык : Russian
Default : Нет
Forced : Нет

Аудио #6
Идентификатор : 7
Формат : AC-3
Формат/Информация : Audio Coding 3
Расширение режима : CM (complete main)
Параметр Endianness формата : Big
Идентификатор кодека : A_AC3
Продолжительность : 1 ч. 49 м.
Вид битрейта : Постоянный
Битрейт : 640 Кбит/сек
Каналы : 6 каналов
Расположение каналов : Front: L C R, Side: L R, LFE
Частота : 48,0 КГц
Битовая глубина : 16 бит
Метод сжатия : С потерями
Размер потока : 504 Мбайт (5%)
Заголовок : AVO ( Живов )
Язык : Russian
Default : Нет
Forced : Нет

Аудио #7
Идентификатор : 8
Формат : AC-3
Формат/Информация : Audio Coding 3
Расширение режима : CM (complete main)
Параметр Endianness формата : Big
Идентификатор кодека : A_AC3
Продолжительность : 1 ч. 49 м.
Вид битрейта : Постоянный
Битрейт : 640 Кбит/сек
Каналы : 6 каналов
Расположение каналов : Front: L C R, Side: L R, LFE
Частота : 48,0 КГц
Битовая глубина : 16 бит
Метод сжатия : С потерями
Размер потока : 504 Мбайт (5%)
Язык : English
Default : Нет
Forced : Нет

Текст #1
Идентификатор : 9
Формат : UTF-8
Идентификатор кодека : S_TEXT/UTF8
Идентификатор кодека/Информация : UTF-8 Plain Text
Заголовок : v. 1
Язык : Russian
Default : Нет
Forced : Нет

Текст #2
Идентификатор : 10
Формат : UTF-8
Идентификатор кодека : S_TEXT/UTF8
Идентификатор кодека/Информация : UTF-8 Plain Text
Заголовок : v. 2
Язык : Russian
Default : Нет
Forced : Нет

Текст #3
Идентификатор : 11
Формат : UTF-8
Идентификатор кодека : S_TEXT/UTF8
Идентификатор кодека/Информация : UTF-8 Plain Text
Язык : English
Default : Нет
Forced : Нет

Меню
00:00:00.000 : en:00:00:00.000
00:10:15.448 : en:00:10:15.448
00:19:08.981 : en:00:19:08.981
00:27:25.477 : en:00:27:25.477
00:37:09.853 : en:00:37:09.853
00:47:32.433 : en:00:47:32.433
00:56:59.499 : en:00:56:59.499
01:05:05.652 : en:01:05:05.652
01:13:49.467 : en:01:13:49.467
01:21:58.205 : en:01:21:58.205
01:30:10.113 : en:01:30:10.113
01:42:23.304 : en:01:42:23.304

pb.wtf



Скачать Призрак и Тьма через торрент https://img10.lostpic.net/2020/03/20/d675746a6133416670fcc116244999e7.jpg Скачать фильм Призрак и Тьма через торрент бесплантно в хорошем качестве Описание: 1898 год. Лондон. Молодой строитель полковник Джон Паттерсон получает срочное задание построить мост через реку в африканской ... 10 10 5
Торрент: Зарегистрирован [2020-04-02 15:35] · скачан: 53 раз
Статус: √ проверено
Размер: 9.37 GB
Как cкачать? Как скачать Призрак и Тьма через торрент | UTorrent

% Раздел Тема Автор DL S | L
Фильмы [HD 720p, 1080p] (Хороший звук DUB, MVO) [ 13.13 GB ] Призрак и Тьма / The Ghost and the Darkness [1996 BDRip-HEVC 1080p от KORSAR][Remastered][MVO + 2xDVO + 3xAVO] Cthulhu Скачать
1 | 0

28-11-2019 20:33  

Отключить всю рекламу на сайте

02-04-2020 15:38 Призрак и Тьма Скачать торрент  

Кому интересно может сравнить трансферы.pb.wtf



02-04-2020 17:20 Призрак и Тьма Скачать торрент  

10 баллов из 10 однозначно

а меньше объемом есть?pb.wtf



    Дорогой пользователь! Огромная просьба, поблагодарите релизера, оцените раздачу и оставьте свои комментарий, если Вы скачали Призрак и Тьма через торрент бесплатно! Внесите свою лепту в развитие PiratBit!
    Комментировать посты могут только пользователи прошедшие не сложную регистрацию
    Показать сообщения:    

    Призрак и Тьма через торрент
    Скачать бесплатно Призрак и Тьма
    Призрак и Тьма скачать торрент
    Призрак и Тьма смотреть онлайн
    Cкачать фильм Призрак и Тьма бесплатно
    Призрак и Тьма скачать торрент в хорошем качестве
    Призрак и Тьма смотреть онлайн бесплатно в хорошем качестве


    Вы не можете начинать темы
    Вы не можете отвечать на сообщения
    Вы не можете редактировать свои сообщения
    Вы не можете удалять свои сообщения
    Вы не можете голосовать в опросах
    Вы не можете прикреплять файлы к сообщениям
    Вы можете скачивать файлы