Ссылка на приватное зеркало нашего сайта всего за 1$. Внимание количество ограничено!!!

2 сезон

iTunes

1 сезон

1

iTunes

iTunes

iTunes

1 сезон

RePack

30

ИГРА 18+

pack

ВАЖНО

!!Акция!!

Alien_RageХит недели

RePack

MK11
pack

Забери бонус

RePack

jed

!!Акция!!

Alien_Rage

RePack

fifa19

RePack

Assassins Creed: Odyssey

RePack

NEED FOR SPEED™ PAYBACK

4 сезон

9 сезон

Бесстыжие 9 сезон

Все сериалы

все сериалы на PB.wtf

RePack

FAR CRY 5
  

Последний министр / Сезон: 1 / Серии: 1-16 из 16 (Роман Волобуев) [2020, Комедия, WEBRip 1080p] pb.wtf

Последний министр через торрент pb.wtf

Раздают: 1 [ 16 KB/s ]
Размер: 19.01 GB | Добавлен: 4 мес. 30 д. назад | Торрент скачан:98 раз
Скачать  

02-04-2020 16:10 Последний министр Скачать торрент  

Последний министр
Год выпуска: 2020
Страна: Россия
Жанр: Комедия
Продолжительность: ~ 00:23:00
Субтитры: отсутствуют

Режиссер: Роман Волобуев



В ролях: Ян Цапник, Ольга Сутулова, Нелли Уварова, Сергей Епишев, Анна Шепелева, Софья Лебедева, Алексей Золотовицкий, Дарья Носик, Екатерина Носик, Сергей Степин

Описание: Когда министром перспективного планирования назначают деятельного неудачника, никто представить не может, к чему это приведёт. Оказывается, новый министр действительно хочет изменить жизнь людей к лучшему и для этого вместе с командой активно продвигает собственные инициативы. Правда, инициативы эти не всегда разумны, а результат — крайне непредсказуем.

Качество: WEBRip 1080p
Формат: MKV

Видео: MPEG-4 AVC, ~ 6000 Кбит/с, 1920x804, 25 кадр/с
Аудио: 48.0 kHz, AC3 Dolby Digital, 2/0 (L,R) ch, ~ 192 kbps
скриншот  скриншот  скриншот  скриншот  

Общее
Уникальный идентификатор : 247193999848177429667635867604057139297 (0xB9F7D527C4586FB3AAF44B094CAD2861)
Полное имя : C:\Posledniy.ministr.S01.2020.WEBRip.(1080p).ExKinoRay\Posledniy.ministr.S01.E01-02.2020.WEBRip.(1080p).ExKinoRay.mkv
Формат : Matroska
Версия формата : Version 4
Размер файла : 1,99 Гбайт
Продолжительность : 46 м. 8 с.
Общий поток : 6186 Кбит/сек
Дата кодирования : UTC 2020-04-02 10:39:49
Программа кодирования : mkvmerge v6.9.1 ('Blue Panther') 64bit built on Apr 18 2014 18:23:38
Библиотека кодирования : libebml v1.3.0 + libmatroska v1.4.1

Видео
Идентификатор : 1
Формат : AVC
Формат/Информация : Advanced Video Codec
Профиль формата : High@L4.1
Настройки формата : CABAC / 4 Ref Frames
Параметр CABAC формата : Да
Параметр RefFrames формата : 4 кадра
Идентификатор кодека : V_MPEG4/ISO/AVC
Продолжительность : 46 м. 8 с.
Битрейт : 5971 Кбит/сек
Ширина : 1920 пикселей
Высота : 804 пикселя
Соотношение сторон : 2,40:1
Режим частоты кадров : Постоянный
Частота кадров : 25,000 кадров/сек
Цветовое пространство : YUV
Субдискретизация насыщенности : 4:2:0
Битовая глубина : 8 бит
Тип развёртки : Прогрессивная
Бит/(Пиксели*Кадры) : 0.152
Размер потока : 1,89 Гбайт (95%)
Default : Нет
Forced : Нет
Цветовой диапазон : Limited
Основные цвета : BT.709
Характеристики трансфера : BT.709
Коэффициенты матрицы : BT.709

Аудио
Идентификатор : 2
Формат : AC-3
Формат/Информация : Audio Coding 3
Коммерческое название : Dolby Digital
Идентификатор кодека : A_AC3
Продолжительность : 46 м. 8 с.
Вид битрейта : Постоянный
Битрейт : 192 Кбит/сек
Каналы : 2 канала
ChannelLayout : L R
Частота : 48,0 КГц
Частота кадров : 31,250 кадров/сек (1536 SPF)
Битовая глубина : 16 бит
Метод сжатия : С потерями
Размер потока : 63,4 Мбайт (3%)
Язык : Russian
ServiceKind/String : Complete Main
Default : Да
Forced : Нет

Меню
00:00:00.000 : :Chapter 1

Раздача ведётся путём добавления новых серий, при каждом добавлении создаётся новый торрент. Чтобы начать докачку новой серии, пользователям необходимо сделать следующее:

- Остановить скачивание.
- Удалить старый торрент у себя из клиента (старые серии удалять не надо).
- Скачать новый торрент и запустить его у себя в клиенте вместо старого, при этом указать клиенту путь в старую папку куда и должно происходить скачивание новых серий.

Ваш клиент при этом должен произвести хеширование (проверку) старой папки (если не производит сам - помогите ему сделать это), и будет докачивать только те серии которых у вас ещё нет. Старые серии при этом не удаляются, а продолжают раздаваться!
Если вы уже удалили старые серии, то предотвратить повторную закачку старых серий можно, отжав галочку в соответствующих местах при запуске нового торрента. По возможности, желательно не удалять старые серии как можно дольше, чтобы релизер не столько продолжал раздавать старые серии, а смог сконцентрироваться на новых.
pb.wtf



Скачать Последний министр через торрент http://a.kartinko.org/image_library/1/200311.jpg Скачать фильм Последний министр через торрент бесплантно в хорошем качестве Описание: Когда министром перспективного планирования назначают деятельного неудачника, никто представить не может, к чему это приведёт. ... 8.7 10 19
Торрент: Зарегистрирован [2020-05-23 08:55] · скачан: 98 раз
Статус: √ проверено
Размер: 19.01 GB
Как cкачать? Как скачать Последний министр через торрент | qTorrent

% Раздел Тема Автор DL S | L
Наши сериалы [ 4.36 GB ] Последний министр / Сезон: 1 / Серии: 1-16 из 16 [2020 WEBRip] bober100 Скачать
4 | 0
Наши сериалы [ 4.69 GB ] Последний министр / Сезон: 1 / Серии: 1-16 из 16 [2020 WEB-DLRip] bober100 Скачать
1 | 0
Наши сериалы [ 13.07 GB ] Последний министр / Сезон: 1 / Серии: 1-16 из 16 [2020 WEBRip 720p] bober100 Скачать
2 | 0
Наши сериалы [ 5.34 GB ] Последний министр / Сезон: 1 / Серии: 1-16 из 16 [2020 WEBRip-AVC] bober100 Скачать
2 | 0

28-11-2019 20:33  

Отключить всю рекламу на сайте

    Дорогой пользователь! Огромная просьба, поблагодарите релизера, оцените раздачу и оставьте свои комментарий, если Вы скачали Последний министр через торрент бесплатно! Внесите свою лепту в развитие PiratBit!
    Комментировать посты могут только пользователи прошедшие не сложную регистрацию
    Показать сообщения:    

    Последний министр через торрент
    Скачать бесплатно Последний министр
    Последний министр скачать торрент
    Последний министр смотреть онлайн
    Cкачать фильм Последний министр бесплатно
    Последний министр скачать торрент в хорошем качестве
    Последний министр смотреть онлайн бесплатно в хорошем качестве


    Вы не можете начинать темы
    Вы не можете отвечать на сообщения
    Вы не можете редактировать свои сообщения
    Вы не можете удалять свои сообщения
    Вы не можете голосовать в опросах
    Вы не можете прикреплять файлы к сообщениям
    Вы можете скачивать файлы