Ссылка на приватное зеркало нашего сайта всего за 1$. Внимание количество ограничено!!!

2 сезон

iTunes

1 сезон

1

2 сезон

2 сезон

iTunes

1 сезон

RePack

30

Ultimate

ВАЖНО

ИГРА 18+

pack

RePack

MK11
pack

Забери бонус

RePack

jed

!!Акция!!

Alien_Rage

RePack

fifa19

RePack

Assassins Creed: Odyssey

RePack

NEED FOR SPEED™ PAYBACK

4 сезон

9 сезон

Бесстыжие 9 сезон

Все сериалы

все сериалы на PB.wtf

RePack

FAR CRY 5
  

Проклятие / The Grudge (Николас Песке) [2020, Ужасы, BD Remux 1080p] DUB (rus, ukr) [iTunes] pb.wtf

Проклятие через торрент pb.wtf

Размер: 18.09 GB | Добавлен: 7 мес. назад | Торрент скачан:35 раз
Скачать  

02-04-2020 19:33 Проклятие Скачать торрент  

Проклятие | The Grudge Год выпуска: 2020
Страна: Канада, США
Студия: Ghost House Pictures, Good Universe, Screen Gems, Stage 6 Films
Жанр: Ужасы
Продолжительность: 01:33:44
Перевод: Дублированный | iTunes
Субтитры: Russian (Full, Forced), Ukrainian (Full), English

Режиссер: Николас Песке

rating

В ролях: Андреа Райзборо, Демиан Бишир, Джон Чо, Бетти Гилпин, Лин Шэй, Джеки Уивер, Тара Вествуд, Джанко Бэйли, Дэвид Браун, Зои Фиш

Описание: После того как молодая женщина убила собственную семью в своем доме, мать-одиночка и детектив пытается расследовать дело. Вскоре выясняется, что дом проклят мстительным призраком, обрекающим всех входящих в него на смерть. Она спешит спасти себя и своего ребенка от демонической силы дома по соседству.

Качество: BD Remux 1080p
Формат: MKV

Видео: MPEG-4 AVC, 1920x1080, 24.8 Mbit/s, 23.976 fps
Аудио #01: 48 kHz, AC3, 5.1, 384 Kbps | iTunes | RUS |
Аудио #02: 48 kHz, AC3, 2.0, 192 Kbps | iTunes | UKR |
Аудио #03: 48 kHz, DTS-HD MA, 5.1, 2176 Kbps | Оригинал | ENG |
скриншот  скриншот  скриншот  скриншот  

General
Complete name :\Проклятие_The Grudge (2020) BDRemux.H.264.1080p.NNMClub.mkv
Format : Matroska
Format version : Version 4
File size : 18.1 GiB
Duration : 1 h 33 min
Overall bit rate mode : Variable
Overall bit rate : 27.6 Mb/s
Movie name : Проклятие_The Grudge (2020) BDRemux.H.264.1080p.NNMClub
Encoded date : UTC 2020-04-02 17:10:56
Writing application : mkvmerge v40.0.0 ('Old Town Road + Pony') 64-bit
Writing library : libebml v1.3.9 + libmatroska v1.5.2
Cover : Yes
Attachments : cover.jpg

Video
ID : 1
Format : AVC
Format/Info : Advanced Video Codec
Format profile : High@L4.1
Format settings : CABAC / 2 Ref Frames
Format settings, CABAC : Yes
Format settings, Reference frames : 2 frames
Format settings, GOP : M=1, N=10
Codec ID : V_MPEG4/ISO/AVC
Duration : 1 h 33 min
Bit rate mode : Variable
Bit rate : 24.9 Mb/s
Width : 1 920 pixels
Height : 1 080 pixels
Display aspect ratio : 16:9
Frame rate mode : Constant
Frame rate : 23.976 (24000/1001) FPS
Color space : YUV
Chroma subsampling : 4:2:0
Bit depth : 8 bits
Scan type : Progressive
Bits/(Pixel*Frame) : 0.500
Stream size : 16.3 GiB (90%)
Title : Проклятие_The Grudge (2020) BDRemux.H.264.1080p.NNMClub
Language : English
Default : Yes
Forced : No

Audio #1
ID : 2
Format : AC-3
Format/Info : Audio Coding 3
Commercial name : Dolby Digital
Codec ID : A_AC3
Duration : 1 h 33 min
Bit rate mode : Constant
Bit rate : 384 kb/s
Channel(s) : 6 channels
Channel layout : L R C LFE Ls Rs
Sampling rate : 48.0 kHz
Frame rate : 31.250 FPS (1536 SPF)
Compression mode : Lossy
Stream size : 257 MiB (1%)
Title : Дублированный (iTunes)
Language : Russian
Service kind : Complete Main
Default : Yes
Forced : Yes

Audio #2
ID : 3
Format : AC-3
Format/Info : Audio Coding 3
Commercial name : Dolby Digital
Codec ID : A_AC3
Duration : 1 h 33 min
Bit rate mode : Constant
Bit rate : 192 kb/s
Channel(s) : 2 channels
Channel layout : L R
Sampling rate : 48.0 kHz
Frame rate : 31.250 FPS (1536 SPF)
Compression mode : Lossy
Stream size : 129 MiB (1%)
Title : Дублированный (iTunes)
Language : Ukrainian
Service kind : Complete Main
Default : No
Forced : No

Audio #3
ID : 4
Format : DTS XLL
Format/Info : Digital Theater Systems
Commercial name : DTS-HD Master Audio
Codec ID : A_DTS
Duration : 1 h 33 min
Bit rate mode : Variable
Bit rate : 2 176 kb/s
Channel(s) : 6 channels
Channel layout : C L R Ls Rs LFE
Sampling rate : 48.0 kHz
Frame rate : 93.750 FPS (512 SPF)
Bit depth : 16 bits
Compression mode : Lossless
Stream size : 1.42 GiB (8%)
Title : Оригинал
Language : English
Default : No
Forced : No

Text #1
ID : 5
Format : UTF-8
Codec ID : S_TEXT/UTF8
Codec ID/Info : UTF-8 Plain Text
Duration : 1 h 9 min
Bit rate : 0 b/s
Count of elements : 8
Stream size : 488 Bytes (0%)
Title : Forced
Language : Russian
Default : Yes
Forced : No

Text #2
ID : 6
Format : UTF-8
Codec ID : S_TEXT/UTF8
Codec ID/Info : UTF-8 Plain Text
Duration : 1 h 32 min
Bit rate : 42 b/s
Count of elements : 726
Stream size : 28.9 KiB (0%)
Title : Full
Language : Russian
Default : No
Forced : No

Text #3
ID : 7
Format : PGS
Muxing mode : zlib
Codec ID : S_HDMV/PGS
Codec ID/Info : Picture based subtitle format used on BDs/HD-DVDs
Duration : 1 h 32 min
Bit rate : 17.9 kb/s
Count of elements : 1444
Stream size : 11.9 MiB (0%)
Language : Ukrainian
Default : No
Forced : No

Text #4
ID : 8
Format : UTF-8
Codec ID : S_TEXT/UTF8
Codec ID/Info : UTF-8 Plain Text
Duration : 1 h 26 min
Bit rate : 30 b/s
Count of elements : 740
Stream size : 19.4 KiB (0%)
Language : English
Default : No
Forced : No

Menu
00:00:00.000 : :Chapter 01
00:03:23.870 : :Chapter 02
00:09:48.171 : :Chapter 03
00:15:35.685 : :Chapter 04
00:20:08.207 : :Chapter 05
00:27:51.461 : :Chapter 06
00:32:22.274 : :Chapter 07
00:40:53.451 : :Chapter 08
00:46:06.472 : :Chapter 09
00:54:23.385 : :Chapter 10
00:57:20.937 : :Chapter 11
01:02:53.520 : :Chapter 12
01:09:05.141 : :Chapter 13
01:13:50.426 : :Chapter 14
01:20:38.459 : :Chapter 15
01:25:53.106 : :Chapter 16

pb.wtf



Скачать Проклятие через торрент http://b.radikal.ru/b37/2003/0b/59d7d68bfcdd.jpg Скачать фильм Проклятие через торрент бесплантно в хорошем качестве Описание: После того как молодая женщина убила собственную семью в своем доме, мать-одиночка и детектив пытается расследовать дело. Вскоре ... 10 10 5
Торрент: Зарегистрирован [2020-04-02 19:33] · скачан: 35 раз
Статус: √ проверено
Размер: 18.09 GB
Как cкачать? Как скачать Проклятие через торрент | qTorrent

% Раздел Тема Автор DL S | L
Фильмы 2019-2020 [DVDrip, WEB-DLRip, HDrip] (DUB, MVO) [ 711 MB ] Проклятие / The Grudge [2020 HDRip "BD EUR"] coc900 Скачать
1 | 0
Фильмы 2019-2020 [DVDrip, WEB-DLRip, HDrip] (DUB, MVO) [ 1.46 GB ] Проклятие / The Grudge [2020 BDRip-AVC] DUB [] bober100 Скачать
4 | 0
Фильмы 2019-2020 [DVDrip, WEB-DLRip, HDrip] (DUB, MVO) [ 1.46 GB ] Проклятие / The Grudge [2020 BDRip] - [] Twi7ter Скачать
15 | 2
Фильмы 2019-2020 [DVDrip, WEB-DLRip, HDrip] (DUB, MVO) [ 743 MB ] Проклятие / The Grudge [2020 BDRip] bober100 Скачать
2 | 0
Фильмы [HD 720p, 1080p] (Хороший звук DUB, MVO) [ 12.28 GB ] Проклятие / The Grudge [2020 BDRip 1080p] DUB bober100 Скачать
3 | 0
Фильмы [HD 720p, 1080p] (Хороший звук DUB, MVO) [ 5.58 GB ] Проклятие / The Grudge [2020 BDRip 720p] DUB bober100 Скачать
1 | 0
Фильмы 2019-2020 [DVDrip, WEB-DLRip, HDrip] (DUB, MVO) [ 1.46 GB ] Проклятие / The Grudge [2020 BDRip] DUB [] bober100 Скачать
3 | 0

28-11-2019 20:33  

Отключить всю рекламу на сайте

    Дорогой пользователь! Огромная просьба, поблагодарите релизера, оцените раздачу и оставьте свои комментарий, если Вы скачали Проклятие через торрент бесплатно! Внесите свою лепту в развитие PiratBit!
    Комментировать посты могут только пользователи прошедшие не сложную регистрацию
    Показать сообщения:    

    Проклятие через торрент
    Скачать бесплатно Проклятие
    Проклятие скачать торрент
    Проклятие смотреть онлайн
    Cкачать фильм Проклятие бесплатно
    Проклятие скачать торрент в хорошем качестве
    Проклятие смотреть онлайн бесплатно в хорошем качестве


    Вы не можете начинать темы
    Вы не можете отвечать на сообщения
    Вы не можете редактировать свои сообщения
    Вы не можете удалять свои сообщения
    Вы не можете голосовать в опросах
    Вы не можете прикреплять файлы к сообщениям
    Вы можете скачивать файлы