Ссылка на приватное зеркало нашего сайта всего за 1$. Внимание количество ограничено!!!

2 сезон

iTunes

1 сезон

1

2 сезон

2 сезон

iTunes

1 сезон

RePack

30

Ultimate

ВАЖНО

ИГРА 18+

pack

RePack

MK11
pack

Забери бонус

RePack

jed

!!Акция!!

Alien_Rage

RePack

fifa19

RePack

Assassins Creed: Odyssey

RePack

NEED FOR SPEED™ PAYBACK

4 сезон

9 сезон

Бесстыжие 9 сезон

Все сериалы

все сериалы на PB.wtf

RePack

FAR CRY 5
  

Просто помиловать / Just Mercy (Дестин Креттон) [2019, Драма, BD Remux 1080p] DUB (rus, ukr) [iTunes] pb.wtf

Просто помиловать через торрент pb.wtf

Размер: 30.55 GB | Добавлен: 7 мес. назад | Торрент скачан:41 раз
Скачать  

02-04-2020 20:10 Просто помиловать Скачать торрент  

Просто помиловать | Just Mercy
Год выпуска: 2019
Страна: США
Студия: Endeavor Content, MACRO, Netter Productions
Жанр: Драма
Продолжительность: 02:17:03
Перевод: Дублированный | iTunes
Субтитры: Русские (Forced, Full), украинские (Forced), английские

Режиссер: Дестин Креттон

rating

В ролях: Бри Ларсон, Джейми Фокс, Майкл Б. Джордан, Тим Блэйк Нельсон, Рейф Сполл, О`Ши Джексон мл., Рода Гриффис, Клер Бронсон, Роб Морган, Даррел Бритт-Гибсон, Маркус А. Гриффин мл., Линдсэй Эйлифф, С.Дж. ЛеБланк

Описание: Картина расскажет реальную историю одарённого чернокожего юриста Брайана Стивенсона. Он посвятил себя борьбе за равные права и возможности в суде для самых уязвимых слоёв населения - в том числе неимущих, которые не в состоянии позволить себе квалифицированного и заинтересованного в успешном исходе дела адвоката.

Качество: BD Remux 1080p
Формат: MKV

Видео: MPEG-4 AVC, 1920x1080, 27.3 Mbit/s, 23.976 fps
Аудио #01: 48 kHz, AC3, 5.1, 384 Kbps | iTunes | RUS |
Аудио #02: 48 kHz, AC3, 2.0, 192 Kbps | iTunes | UKR |
Аудио #03: 48 kHz, TrueHD, 5.1, 3287 Kbps | Оригинал | ENG |
Аудио #04: 48 kHz, AC3, 5.1, 640 Kbps | Оригинал | ENG |
скриншот  скриншот  скриншот  скриншот  скриншот  

General
Unique ID : 148645056518381944807775627655105671647 (0x6FD3FF1D77AE98A9F4F528CDD3C6F1DF)
Complete name : E:Video111Just.Mercy.2019.BDREMUX.1080p.seleZen.mkv
Format : Matroska
Format version : Version 4
File size : 30.6 GiB
Duration : 2 h 17 min
Overall bit rate mode : Variable
Overall bit rate : 31.9 Mb/s
Movie name : Just Mercy 2019 from селезень
Encoded date : UTC 2020-04-02 19:53:59
Writing application : mkvmerge v40.0.0 ('Old Town Road + Pony') 64-bit
Writing library : libebml v1.3.9 + libmatroska v1.5.2

Video
ID : 1
Format : AVC
Format/Info : Advanced Video Codec
Format profile : High@L4.1
Format settings : CABAC / 4 Ref Frames
Format settings, CABAC : Yes
Format settings, Reference : 4 frames
Codec ID : V_MPEG4/ISO/AVC
Duration : 2 h 17 min
Bit rate mode : Variable
Bit rate : 27.3 Mb/s
Maximum bit rate : 30.0 Mb/s
Width : 1 920 pixels
Height : 1 080 pixels
Display aspect ratio : 16:9
Frame rate mode : Constant
Frame rate : 23.976 (24000/1001) FPS
Color space : YUV
Chroma subsampling : 4:2:0
Bit depth : 8 bits
Scan type : Progressive
Bits/(Pixel*Frame) : 0.550
Stream size : 26.2 GiB (86%)
Language : English
Default : Yes
Forced : No

Audio #1
ID : 2
Format : AC-3
Format/Info : Audio Coding 3
Commercial name : Dolby Digital
Codec ID : A_AC3
Duration : 2 h 17 min
Bit rate mode : Constant
Bit rate : 384 kb/s
Channel(s) : 6 channels
Channel layout : L R C LFE Ls Rs
Sampling rate : 48.0 kHz
Frame rate : 31.250 FPS (1536 SPF)
Compression mode : Lossy
Stream size : 376 MiB (1%)
Title : iTunes
Language : Russian
Service kind : Complete Main
Default : Yes
Forced : Yes

Audio #2
ID : 3
Format : AC-3
Format/Info : Audio Coding 3
Commercial name : Dolby Digital
Codec ID : A_AC3
Duration : 2 h 17 min
Bit rate mode : Constant
Bit rate : 192 kb/s
Channel(s) : 2 channels
Channel layout : L R
Sampling rate : 48.0 kHz
Frame rate : 31.250 FPS (1536 SPF)
Compression mode : Lossy
Stream size : 188 MiB (1%)
Title : iTunes
Language : Ukrainian
Service kind : Complete Main
Default : No
Forced : No

Audio #3
ID : 4
Format : MLP FBA 16-ch
Format/Info : Meridian Lossless Packing FBA with 16-channel presentation
Commercial name : Dolby TrueHD with Dolby Atmos
Codec ID : A_TRUEHD
Duration : 2 h 17 min
Bit rate mode : Variable
Bit rate : 3 287 kb/s
Maximum bit rate : 5 004 kb/s
Channel(s) : 8 channels
Channel layout : L R C LFE Ls Rs Lb Rb
Sampling rate : 48.0 kHz
Frame rate : 1 200.000 FPS (40 SPF)
Compression mode : Lossless
Delay relative to video : 1 ms
Stream size : 3.15 GiB (10%)
Title : Original
Language : English
Default : No
Forced : No
Number of dynamic objects : 15
Bed channel count : 1 channel
Bed channel configuration : LFE

Audio #4
ID : 5
Format : AC-3
Format/Info : Audio Coding 3
Commercial name : Dolby Digital
Codec ID : A_AC3
Duration : 2 h 17 min
Bit rate mode : Constant
Bit rate : 640 kb/s
Channel(s) : 6 channels
Channel layout : L R C LFE Ls Rs
Sampling rate : 48.0 kHz
Frame rate : 31.250 FPS (1536 SPF)
Compression mode : Lossy
Delay relative to video : 1 ms
Stream size : 627 MiB (2%)
Language : English
Service kind : Complete Main
Default : No
Forced : No

Text #1
ID : 6
Format : UTF-8
Codec ID : S_TEXT/UTF8
Codec ID/Info : UTF-8 Plain Text
Duration : 2 h 11 min
Bit rate : 7 b/s
Count of elements : 98
Stream size : 7.19 KiB (0%)
Title : Forced [iTunes]
Language : Russian
Default : Yes
Forced : Yes

Text #2
ID : 7
Format : UTF-8
Codec ID : S_TEXT/UTF8
Codec ID/Info : UTF-8 Plain Text
Duration : 2 h 11 min
Bit rate : 110 b/s
Count of elements : 1672
Stream size : 107 KiB (0%)
Title : Full [iTunes]
Language : Russian
Default : No
Forced : No

Text #3
ID : 8
Format : UTF-8
Codec ID : S_TEXT/UTF8
Codec ID/Info : UTF-8 Plain Text
Duration : 2 h 16 min
Bit rate : 7 b/s
Count of elements : 104
Stream size : 7.03 KiB (0%)
Title : Forced [iTunes]
Language : Ukrainian
Default : No
Forced : No

Text #4
ID : 9
Format : UTF-8
Codec ID : S_TEXT/UTF8
Codec ID/Info : UTF-8 Plain Text
Duration : 2 h 9 min
Bit rate : 68 b/s
Count of elements : 2095
Stream size : 65.3 KiB (0%)
Title : SDH [iTunes]
Language : English
Default : No
Forced : No

Menu
00:00:00.000 : en:Capítulo 01
00:09:09.632 : en:Capítulo 02
00:17:47.232 : en:Capítulo 03
00:28:31.418 : en:Capítulo 04
00:34:24.979 : en:Capítulo 05
00:44:16.862 : en:Capítulo 06
00:53:57.025 : en:Capítulo 07
01:01:16.214 : en:Capítulo 08
01:10:44.907 : en:Capítulo 09
01:14:59.995 : en:Capítulo 10
01:23:08.483 : en:Capítulo 11
01:29:11.721 : en:Capítulo 12
01:39:12.154 : en:Capítulo 13
01:46:44.272 : en:Capítulo 14
01:54:45.545 : en:Capítulo 15
02:04:18.200 : en:Capítulo 16
02:10:16.725 : en:Capítulo 17

pb.wtf



Скачать Просто помиловать через торрент https://i111.fastpic.ru/big/2020/0402/c1/def306bcc82a481a1dd1754d14acd5c1.jpg Скачать фильм Просто помиловать через торрент бесплантно в хорошем качестве Описание: Картина расскажет реальную историю одарённого чернокожего юриста Брайана Стивенсона. Он посвятил себя борьбе за равные права и ... 10 10 4
Торрент: Зарегистрирован [2020-04-02 20:10] · скачан: 41 раз
Статус: √ проверено
Размер: 30.55 GB
Как cкачать? Как скачать Просто помиловать через торрент | qTorrent

% Раздел Тема Автор DL S | L
Фильмы 2019-2020 [DVDrip, WEB-DLRip, HDrip] (DUB, MVO) [ 2.12 GB ] Просто помиловать / Just Mercy [2019 BDRip] - Twi7ter Скачать
61 | 2
Фильмы 2019-2020 [DVDrip, WEB-DLRip, HDrip] (DUB, MVO) [ 1.46 GB ] Просто помиловать / Just Mercy [2019 BDRip] - Twi7ter Скачать
94 | 2
Фильмы 2019-2020 [DVDrip, WEB-DLRip, HDrip] (DUB, MVO) [ 1.46 GB ] Просто помиловать / Just Mercy [2019 BDRip] bober100 Скачать
3 | 0
Фильмы 2019-2020 [DVDrip, WEB-DLRip, HDrip] (DUB, MVO) [ 2.12 GB ] Просто помиловать / Just Mercy [2019 BDRip] bober100 Скачать
1 | 0
Фильмы [HD 720p, 1080p] (Хороший звук DUB, MVO) [ 7.39 GB ] Просто помиловать / Just Mercy [2019 BDRip 720p] DUB bober100 Скачать
2 | 0
Фильмы [HD 720p, 1080p] (Хороший звук DUB, MVO) [ 14.29 GB ] Просто помиловать / Just Mercy [2019 BDRip 1080p] DUB bober100 Скачать
3 | 0
Фильмы 2019-2020 [DVDrip, WEB-DLRip, HDrip] (DUB, MVO) [ 2.18 GB ] Просто помиловать / Just Mercy [2019 WEB-DLRip] DUB [Мосфильм-Мастер] bober100 Скачать
4 | 0

28-11-2019 20:33  

Отключить всю рекламу на сайте

    Дорогой пользователь! Огромная просьба, поблагодарите релизера, оцените раздачу и оставьте свои комментарий, если Вы скачали Просто помиловать через торрент бесплатно! Внесите свою лепту в развитие PiratBit!
    Комментировать посты могут только пользователи прошедшие не сложную регистрацию
    Показать сообщения:    

    Просто помиловать через торрент
    Скачать бесплатно Просто помиловать
    Просто помиловать скачать торрент
    Просто помиловать смотреть онлайн
    Cкачать фильм Просто помиловать бесплатно
    Просто помиловать скачать торрент в хорошем качестве
    Просто помиловать смотреть онлайн бесплатно в хорошем качестве


    Вы не можете начинать темы
    Вы не можете отвечать на сообщения
    Вы не можете редактировать свои сообщения
    Вы не можете удалять свои сообщения
    Вы не можете голосовать в опросах
    Вы не можете прикреплять файлы к сообщениям
    Вы можете скачивать файлы