Ссылка на приватное зеркало нашего сайта всего за 1$. Внимание количество ограничено!!!

2 сезон

iTunes

1 сезон

1

2 сезон

2 сезон

iTunes

1 сезон

RePack

30

Новинка

ВАЖНО

ИГРА 18+

pack

RePack

MK11
pack

Забери бонус

RePack

jed

!!Акция!!

Alien_Rage

RePack

fifa19

RePack

Assassins Creed: Odyssey

RePack

NEED FOR SPEED™ PAYBACK

4 сезон

9 сезон

Бесстыжие 9 сезон

Все сериалы

все сериалы на PB.wtf

RePack

FAR CRY 5
  

Невидимая жизнь Эвридики / A Vida Invisível (Карим Айнуз) [2019, Мелодрама, WEB-DL 1080p] MVO [iTunes] pb.wtf

Невидимая жизнь Эвридики через торрент pb.wtf

Размер: 8.42 GB | Добавлен: 8 мес. назад | Торрент скачан:46 раз
Скачать  

02-04-2020 20:54 Невидимая жизнь Эвридики Скачать торрент  

Невидимая жизнь Эвридики | A Vida Invisível
Год выпуска: 2019
Страна: Бразилия, Германия
Студия: Canal Brasil, Pola Pandora Filmproduktions, RT Features
Жанр: Мелодрама
Продолжительность: 02:20:11
Перевод: Профессиональный (многоголосый) | iTunes
Субтитры: отсутствуют

Режиссер: Карим Айнуз

rating

В ролях: Жулия Стокклер, Карол Дуарте, Флавия Гусман, Антонио Фонсека, Уго Крус, Николас Антунес, Мария Маноэла, Грегориу Дювивьер, Самуэль Толедо, Луана Ксавьер

Описание: Рио-де-Жанейро, 50-е годы прошлого века. Эвридика и ее старшая сестра Гида мечтают о жизни в Европе. Эвридика намеревается стать пианисткой и уехать учиться в Вену, а Гида жаждет свободы. Она бежит из дома с любовником в надежде обрести рай в далекой Греции. Планам обеих сестер не суждено сбыться. Деспотичный отец приговорит их к долгой разлуке. Но даже вдали друг от друга они будут верить в неизбежность встречи...

Качество: WEB-DL 1080p
Формат: MKV

Видео: MPEG-4 AVC, 1920x1080, 7831 Mbit/s, 23.976 fps
Аудио #01: 48 kHz, AC3, 5.1, 384 Kbps | iTunes | RUS
Аудио #02: 48 kHz, E-AC3, 5.1, 384 Kbps | Оригинал | POR
скриншот  скриншот  скриншот  скриншот  скриншот  

General
Unique ID : 172862157126624570297711639450390297982 (0x820C0A5BFD6707C71EE915960BEEFD7E)
Complete name : E:Video111Invisible.Life.2019.WEB-DL.1080p.seleZen.mkv
Format : Matroska
Format version : Version 4
File size : 8.42 GiB
Duration : 2 h 20 min
Overall bit rate : 8 601 kb/s
Movie name : Invisible Life 2019 from селезень
Encoded date : UTC 2020-04-02 20:44:11
Writing application : mkvmerge v40.0.0 ('Old Town Road + Pony') 64-bit
Writing library : libebml v1.3.9 + libmatroska v1.5.2

Video
ID : 1
Format : AVC
Format/Info : Advanced Video Codec
Format profile : High@L4
Format settings : CABAC / 2 Ref Frames
Format settings, CABAC : Yes
Format settings, Reference : 2 frames
Codec ID : V_MPEG4/ISO/AVC
Duration : 2 h 20 min
Bit rate : 7 831 kb/s
Width : 1 920 pixels
Height : 1 080 pixels
Display aspect ratio : 16:9
Frame rate mode : Constant
Frame rate : 23.976 (24000/1001) FPS
Color space : YUV
Chroma subsampling : 4:2:0
Bit depth : 8 bits
Scan type : Progressive
Bits/(Pixel*Frame) : 0.158
Stream size : 7.67 GiB (91%)
Writing library : x264 core 155 r2901 7d0ff22
Language : Portuguese
Default : Yes
Forced : No
Color range : Limited
Color primaries : BT.709
Transfer characteristics : BT.709
Matrix coefficients : BT.709

Audio #1
ID : 2
Format : AC-3
Format/Info : Audio Coding 3
Commercial name : Dolby Digital
Codec ID : A_AC3
Duration : 2 h 20 min
Bit rate mode : Constant
Bit rate : 384 kb/s
Channel(s) : 6 channels
Channel layout : L R C LFE Ls Rs
Sampling rate : 48.0 kHz
Frame rate : 31.250 FPS (1536 SPF)
Compression mode : Lossy
Stream size : 385 MiB (4%)
Title : iTunes
Language : Russian
Service kind : Complete Main
Default : Yes
Forced : Yes

Audio #2
ID : 3
Format : E-AC-3
Format/Info : Enhanced AC-3
Commercial name : Dolby Digital Plus
Codec ID : A_EAC3
Duration : 2 h 20 min
Bit rate mode : Constant
Bit rate : 384 kb/s
Channel(s) : 6 channels
Channel layout : L R C LFE Ls Rs
Sampling rate : 48.0 kHz
Frame rate : 31.250 FPS (1536 SPF)
Compression mode : Lossy
Stream size : 385 MiB (4%)
Title : Original
Language : Portuguese
Service kind : Complete Main
Default : No
Forced : No

pb.wtf



Скачать Невидимая жизнь Эвридики через торрент https://i111.fastpic.ru/big/2020/0403/d9/ea15c97bdc87a4cc2e32e5808f8af4d9.jpg Скачать фильм Невидимая жизнь Эвридики через торрент бесплантно в хорошем качестве Описание: Рио-де-Жанейро, 50-е годы прошлого века. Эвридика и ее старшая сестра Гида мечтают о жизни в Европе. Эвридика намеревается стать ... 8.8 10 4
Торрент: Зарегистрирован [2020-04-02 20:54] · скачан: 46 раз
Статус: √ проверено
Размер: 8.42 GB
Как cкачать? Как скачать Невидимая жизнь Эвридики через торрент | qTorrent

% Раздел Тема Автор DL S | L
Фильмы 2019-2020 [DVDrip, WEB-DLRip, HDrip] (DUB, MVO) [ 1.46 GB ] Невидимая жизнь Эвридики / A Vida Invisível [2019 Мело WEB-DLRip] MVO bober100 Скачать
1 | 0
Фильмы 2019-2020 [DVDrip, WEB-DLRip, HDrip] (DUB, MVO) [ 2.19 GB ] Невидимая жизнь Эвридики / A Vida Invisível [2019 Мело WEB-DLRip] MVO bober100 Скачать
4 | 0

28-11-2019 20:33  

Отключить всю рекламу на сайте

    Дорогой пользователь! Огромная просьба, поблагодарите релизера, оцените раздачу и оставьте свои комментарий, если Вы скачали Невидимая жизнь Эвридики через торрент бесплатно! Внесите свою лепту в развитие PiratBit!
    Комментировать посты могут только пользователи прошедшие не сложную регистрацию
    Показать сообщения:    

    Невидимая жизнь Эвридики через торрент
    Скачать бесплатно Невидимая жизнь Эвридики
    Невидимая жизнь Эвридики скачать торрент
    Невидимая жизнь Эвридики смотреть онлайн
    Cкачать фильм Невидимая жизнь Эвридики бесплатно
    Невидимая жизнь Эвридики скачать торрент в хорошем качестве
    Невидимая жизнь Эвридики смотреть онлайн бесплатно в хорошем качестве


    Вы не можете начинать темы
    Вы не можете отвечать на сообщения
    Вы не можете редактировать свои сообщения
    Вы не можете удалять свои сообщения
    Вы не можете голосовать в опросах
    Вы не можете прикреплять файлы к сообщениям
    Вы можете скачивать файлы