Ссылка на приватное зеркало нашего сайта всего за 1$. Внимание количество ограничено!!!

2 сезон

iTunes

1 сезон

1

iTunes

iTunes

iTunes

1 сезон

RePack

30

ИГРА 18+

pack

ВАЖНО

!!Акция!!

Alien_RageХит недели

RePack

MK11
pack

Забери бонус

RePack

jed

!!Акция!!

Alien_Rage

RePack

fifa19

RePack

Assassins Creed: Odyssey

RePack

NEED FOR SPEED™ PAYBACK

4 сезон

9 сезон

Бесстыжие 9 сезон

Все сериалы

все сериалы на PB.wtf

RePack

FAR CRY 5
  

Два силуэта на закате солнца / Серии: 1-2 из 2 (Александра Бутько) [2020, Детектив, мелодрама, SATRip] pb.wtf

Два силуэта на закате солнца через торрент pb.wtf

Размер: 1.15 GB | Добавлен: 6 мес. назад | Торрент скачан:28 раз
Скачать  

03-04-2020 13:04 Два силуэта на закате солнца Скачать торрент  

Два силуэта на закате солнца
Год выпуска: 2020
Страна: Россия
Жанр: Детектив, мелодрама
Продолжительность: ~ 00:44:00
Субтитры: отсутствуют

Режиссер: Александра Бутько



В ролях: Алиса Варова, Михаил Тарабукин, Юрий Назаров, Валентина Теличкина, Александр Пашков, Дарья Ленда, Вероника Норина, Владимир Петров (VIII), Екатерина Рудакова, Елена Сексте, Данил Визжалов, Максим Архипов (II)

Описание: Инга, свободный фотограф, случайно узнаёт, что где-то в Калининграде у неё есть дед. Отправляясь на его поиски, она сама становится объектом пристального внимания. Женщина даже не подозревает, что рискует жизнью, погружаясь в загадочную и запутанную цепочку событий прошлого. Распутывая этот клубок, она невольно раскроет преступление, которое было совершено более сорока лет назад.

Качество: SATRip
Формат: AVI

Видео: XviD, 720x400, ~ 1700 Кбит/с, 0.235 bit/pixel
Аудио: МР3, 48,0 КГц, 2 ch, 192 Кбит/с
скриншот  скриншот  скриншот  скриншот  скриншот  

Общее
Полное имя : D:\Два.Силуэта.На.Закате.Солнца.2020.SATRip.7turza\01.Два.Силуэта.На.Закате.Солнца.7turza.avi
Формат : AVI
Формат/Информация : Audio Video Interleave
Размер файла : 589 Мбайт
Продолжительность : 43 м. 27 с.
Общий поток : 1896 Кбит/сек
Название фильма : S01 E01 # from 7turza #
Программа кодирования : Lavf58.29.100

Видео
Идентификатор : 0
Формат : MPEG-4 Visual
Профиль формата : Advanced Simple@L5
Настройки формата : BVOP1
Параметр BVOP формата : 1
Параметр QPel формата : Нет
Параметр GMC формата : Без точки перехода
Параметр матрицы формата : Default (H.263)
Идентификатор кодека : XVID
Идентификатор кодека/Подсказка : XviD
Продолжительность : 43 м. 27 с.
Битрейт : 1691 Кбит/сек
Ширина : 720 пикселей
Высота : 400 пикселей
Соотношение сторон : 16:9
Частота кадров : 25,000 кадров/сек
Цветовое пространство : YUV
Субдискретизация насыщенности : 4:2:0
Битовая глубина : 8 бит
Тип развёртки : Прогрессивная
Бит/(Пиксели*Кадры) : 0.235
Размер потока : 526 Мбайт (89%)
Библиотека кодирования : XviD 67

Аудио
Идентификатор : 1
Формат : MPEG Audio
Версия формата : Version 1
Профиль формата : Layer 3
Настройки формата : Joint stereo / MS Stereo
Идентификатор кодека : 55
Идентификатор кодека/Подсказка : MP3
Продолжительность : 43 м. 27 с.
Вид битрейта : Постоянный
Битрейт : 192 Кбит/сек
Каналы : 2 канала
Частота : 48,0 КГц
Размер потока : 59,7 Мбайт (10%)
Выравнивание : Соединение по промежуткам
Продолжительность промежутка : 24 мс. (0,60 видеокадр)
Библиотека кодирования : LAME3.100UUUUUUUU

pb.wtf



Скачать Два силуэта на закате солнца через торрент https://a.radikal.ru/a12/2004/65/bb7c3a4142ab.jpg Скачать фильм Два силуэта на закате солнца через торрент бесплантно в хорошем качестве Описание: Инга, свободный фотограф, случайно узнаёт, что где-то в Калининграде у неё есть дед. Отправляясь на его поиски, она сама ... 10 10 5
Торрент: Зарегистрирован [2020-04-03 13:04] · скачан: 28 раз
Статус: √ проверено
Размер: 1.15 GB
Как cкачать? Как скачать Два силуэта на закате солнца через торрент | qTorrent

% Раздел Тема Автор DL S | L
Наши сериалы [ 1.09 GB ] Два силуэта на закате солнца / Серии: 1-2 из 2 [2020 WEB-DLRip-AVC] bober100 Скачать
1 | 0
Наши сериалы [ 1.09 GB ] Два силуэта на закате солнца / Серии: 1-2 из 2 [2020 WEB-DLRip] bober100 Скачать
1 | 0
Наши сериалы [ 1.03 GB ] Два силуэта на закате солнца / Серии: 1-2 из 2 [2020 SATRip-AVC] aleksan55 Скачать
1 | 0

28-11-2019 20:33  

Отключить всю рекламу на сайте

    Дорогой пользователь! Огромная просьба, поблагодарите релизера, оцените раздачу и оставьте свои комментарий, если Вы скачали Два силуэта на закате солнца через торрент бесплатно! Внесите свою лепту в развитие PiratBit!
    Комментировать посты могут только пользователи прошедшие не сложную регистрацию
    Показать сообщения:    

    Два силуэта на закате солнца через торрент
    Скачать бесплатно Два силуэта на закате солнца
    Два силуэта на закате солнца скачать торрент
    Два силуэта на закате солнца смотреть онлайн
    Cкачать фильм Два силуэта на закате солнца бесплатно
    Два силуэта на закате солнца скачать торрент в хорошем качестве
    Два силуэта на закате солнца смотреть онлайн бесплатно в хорошем качестве


    Вы не можете начинать темы
    Вы не можете отвечать на сообщения
    Вы не можете редактировать свои сообщения
    Вы не можете удалять свои сообщения
    Вы не можете голосовать в опросах
    Вы не можете прикреплять файлы к сообщениям
    Вы можете скачивать файлы