Ссылка на приватное зеркало нашего сайта всего за 1$. Внимание количество ограничено!!!

2 сезон

iTunes

1 сезон

1

2 сезон

2 сезон

iTunes

1 сезон

RePack

30

Ultimate

ВАЖНО

ИГРА 18+

pack

RePack

MK11
pack

Забери бонус

RePack

jed

!!Акция!!

Alien_Rage

RePack

fifa19

RePack

Assassins Creed: Odyssey

RePack

NEED FOR SPEED™ PAYBACK

4 сезон

9 сезон

Бесстыжие 9 сезон

Все сериалы

все сериалы на PB.wtf

RePack

FAR CRY 5
  

Кукла 2: Брамс / Brahms: The Boy II (Уильям Брент Белл) [2020, Ужасы, триллер, драма, детектив, WEB-DL 1080p] DUB [iTunes] pb.wtf

Кукла 2: Брамс через торрент pb.wtf

Раздают: 3 [ 0 KB/s ]
Размер: 3.53 GB | Добавлен: 8 мес. назад | Торрент скачан:398 раз
Скачать  

04-04-2020 08:29 Кукла 2: Брамс Скачать торрент  

Кукла 2: Брамс | Brahms: The Boy II
Год выпуска: 2020
Страна: США
Жанр: Ужасы, триллер, драма, детектив
Продолжительность: 01:26:35
Перевод: Дублированный | iTunes
Субтитры: Английские

Режиссер: Уильям Брент Белл

rating

В ролях: Кэти Холмс, Овайн Йомэн, Кристофер Конвери, Ралф Айнесон, Анджали Джай, Оливер Райс, Натали Ривалин, Дафна Хоскинс, Джоэли Коллинз, Элли Кинг

Описание: Благополучная семья переезжает в старинный особняк Хилшир. Неподалёку в лесу сын откапывает странную куклу в практически ростом с него самого. Мальчик начинает общаться с куклой как с живым ребенком, не подозревая, чем обернется эта зловещая дружба.

Качество: WEB-DL 1080p
Формат: MKV

Видео: MPEG-4 AVC, 4802 Кбит/с, 1920x800
Аудио#1: Русский (AC3, 6 ch, 384 Кбит/с)
Аудио#2: английский (E-AC3, 6 ch, 640 Кбит/с)
скриншот  скриншот  скриншот  скриншот  

Complete name : The.Boy.II.2020.1080p.AMZN.WEB-DL.ELEKTRI4KA.UNIONGANG.mkv
Format : Matroska
Format version : Version 4 / Version 2
File size : 3.53 GiB
Duration : 1 h 26 min
Overall bit rate : 5 829 kb/s
Movie name : ELEKTRI4KA.UNIONGANG
Encoded date : UTC 2020-04-03 22:54:19
Writing application : mkvmerge v8.3.0 ('Over the Horizon') 64bit
Writing library : libebml v1.3.1 + libmatroska v1.4.2
Cover : Yes
Attachments : small_cover.jpg / small_cover_land.jpg / cover.jpg / cover_land.jpg

Video
ID : 1
Format : AVC
Format/Info : Advanced Video Codec
Format profile : High@L4
Format settings, CABAC : Yes
Format settings, Reference frames : 4 frames
Codec ID : V_MPEG4/ISO/AVC
Duration : 1 h 26 min
Bit rate mode : Constant
Bit rate : 4 802 kb/s
Nominal bit rate : 10 000 kb/s
Width : 1 920 pixels
Height : 800 pixels
Display aspect ratio : 2.40:1
Frame rate mode : Constant
Frame rate : 23.976 (24000/1001) FPS
Color space : YUV
Chroma subsampling : 4:2:0
Bit depth : 8 bits
Scan type : Progressive
Bits/(Pixel*Frame) : 0.130
Stream size : 2.90 GiB (82%)
Default : Yes
Forced : No
Color range : Limited
Color primaries : BT.709
Transfer characteristics : BT.709
Matrix coefficients : BT.709

Audio #1
ID : 2
Format : AC-3
Format/Info : Audio Coding 3
Mode extension : CM (complete main)
Format settings, Endianness : Big
Codec ID : A_AC3
Duration : 1 h 26 min
Bit rate mode : Constant
Bit rate : 384 kb/s
Channel(s) : 6 channels
Channel positions : Front: L C R, Side: L R, LFE
Sampling rate : 48.0 kHz
Frame rate : 31.250 FPS (1536 spf)
Bit depth : 16 bits
Compression mode : Lossy
Stream size : 238 MiB (7%)
Title : iTunes
Language : Russian
Default : Yes
Forced : No

Audio #2
ID : 3
Format : E-AC-3
Format/Info : Enhanced Audio Coding 3
Format settings, Endianness : Big
Codec ID : A_EAC3
Duration : 1 h 26 min
Bit rate mode : Constant
Bit rate : 640 kb/s
Channel(s) : 6 channels
Channel positions : Front: L C R, Side: L R, LFE
Sampling rate : 48.0 kHz
Frame rate : 187.500 FPS (256 spf)
Compression mode : Lossy
Stream size : 396 MiB (11%)
Language : English
Default : No
Forced : No

Text #1
ID : 4
Format : UTF-8
Codec ID : S_TEXT/UTF8
Codec ID/Info : UTF-8 Plain Text
Duration : 1 h 18 min
Bit rate : 41 b/s
Count of elements : 865
Stream size : 24.0 KiB (0%)
Language : English
Default : No
Forced : No

Text #2
ID : 5
Format : UTF-8
Codec ID : S_TEXT/UTF8
Codec ID/Info : UTF-8 Plain Text
Duration : 1 h 18 min
Bit rate : 46 b/s
Count of elements : 972
Stream size : 26.7 KiB (0%)
Title : SDH
Language : English
Default : No
Forced : No

Menu
00:00:00.000 : en:1
00:10:05.105 : en:2
00:19:08.815 : en:3
00:30:05.638 : en:4
00:40:50.658 : en:5
00:48:07.678 : en:6
00:57:30.824 : en:7
01:10:35.233 : en:8
01:19:57.378 : en:9

pb.wtf



Скачать Кукла 2: Брамс через торрент https://img15.lostpic.net/2020/04/04/7b7624f7ea07f3f078a55242fa0df88c.jpg Скачать фильм Кукла 2: Брамс через торрент бесплантно в хорошем качестве Описание: Благополучная семья переезжает в старинный особняк Хилшир. Неподалёку в лесу сын откапывает странную куклу в практически ростом с ... 9.9 10 15
Торрент: Зарегистрирован [2020-04-04 08:29] · скачан: 398 раз
Статус: √ проверено
Размер: 3.53 GB
Как cкачать? Как скачать Кукла 2: Брамс через торрент | qTorrent

% Раздел Тема Автор DL S | L
Ultra HD (UHD: 2K, 4K, 8K) — видео сверхвысокой чёткости [ 37.07 GB ] Кукла 2: Брамс / Brahms: The Boy II [2020 UHD BDRemux 2160p] bober100 Скачать
1 | 0
Фильмы 2019-2020 [DVDrip, WEB-DLRip, HDrip] (DUB, MVO) [ 1.42 GB ] Кукла 2: Брамс / Brahms: The Boy II [2020 BDRip] - Twi7ter Скачать
16 | 0
Фильмы (Blu-ray, BD-Remux, HDDVD) [ 23.46 GB ] Кукла 2: Брамс / Brahms: The Boy II [2020 BD Remux 1080p] bober100 Скачать
1 | 0
Фильмы [HD 720p, 1080p] (Хороший звук DUB, MVO) [ 5.9 GB ] Кукла 2: Брамс / Brahms: The Boy II [2020 BDRip 1080p] bober100 Скачать
2 | 0
Фильмы 2019-2020 [DVDrip, WEB-DLRip, HDrip] (DUB, MVO) [ 809 MB ] Кукла 2: Брамс / Brahms: The Boy II [2020 HDRip] bober100 Скачать
1 | 0
Фильмы [HD 720p, 1080p] (Хороший звук DUB, MVO) [ 2.72 GB ] Кукла 2: Брамс / Brahms: The Boy II [2020 BDRip 720p] bober100 Скачать
1 | 0
Фильмы 2019-2020 [DVDrip, WEB-DLRip, HDrip] (DUB, MVO) [ 1.42 GB ] Кукла 2: Брамс / Brahms: The Boy II [2020 BDRip] bober100 Скачать
1 | 0

28-11-2019 20:33  

Отключить всю рекламу на сайте

04-04-2020 12:39 Кукла 2: Брамс Скачать торрент  

опять семья куда-то переезжает и начинается дерьмо, как же достали такие убогие фильмы, у сценаристов походу один мозг на всех.pb.wtf



04-04-2020 13:06 Кукла 2: Брамс Скачать торрент  

Ну уж раздайте кто нибудь то!pb.wtf



17-05-2020 17:36 Кукла 2: Брамс Скачать торрент  

Полная чушь, на мой взгляд, первая часть была намноооого лучшеpb.wtf



    Дорогой пользователь! Огромная просьба, поблагодарите релизера, оцените раздачу и оставьте свои комментарий, если Вы скачали Кукла 2: Брамс через торрент бесплатно! Внесите свою лепту в развитие PiratBit!
    Комментировать посты могут только пользователи прошедшие не сложную регистрацию
    Показать сообщения:    

    Кукла 2: Брамс через торрент
    Скачать бесплатно Кукла 2: Брамс
    Кукла 2: Брамс скачать торрент
    Кукла 2: Брамс смотреть онлайн
    Cкачать фильм Кукла 2: Брамс бесплатно
    Кукла 2: Брамс скачать торрент в хорошем качестве
    Кукла 2: Брамс смотреть онлайн бесплатно в хорошем качестве


    Вы не можете начинать темы
    Вы не можете отвечать на сообщения
    Вы не можете редактировать свои сообщения
    Вы не можете удалять свои сообщения
    Вы не можете голосовать в опросах
    Вы не можете прикреплять файлы к сообщениям
    Вы можете скачивать файлы