2 сезон

iTunes

MVO

1

2 сезон

iTunes

iTunes

1 сезон

RePack

30

Ultimate

ВАЖНО

ИГРА 18+

pack

RePack

MK11
pack

Легкие деньги

RePack

jed

RePack

fifa19

RePack

RDR2

RePack

NEED FOR SPEED™ PAYBACK

4 сезон

9 сезон

Бесстыжие 9 сезон

Все сериалы

все сериалы на PB.wtf

RePack

FAR CRY 5

Anonymous, добрый день, мы не успеваем собрать деньги на оплату серверов за декабрь и январь, помогите нам пожалуйста в это трудное время. В качестве благодарности мы отключим Вам всю рекламу на сайте (укажите свой ник в строку Ваше имя)!

×
  
Magnet ссылка

Шафт / Shaft (Джон Синглтон) [2000 г., Детектив, боевик, триллер, BDRip 720p / 60 FPS, Профессиональный (многоголосый)] от R.G. HD-Films pb.wtf

Шафт через торрент pb.wtf

Размер: 3.12 GB | Добавлен: 9 мес. назад | Торрент скачан:125 раз
Скачать  

04-04-2020 10:04 Шафт Скачать торрент  

Шафт / Shaft
Год выпуска: 2000
Страна: США, Германия
Жанр: Детектив, боевик, триллер
Продолжительность: 01:39:20
Перевод: Профессиональный (многоголосый)
Субтитры: Russian, English

Режиссер: Джон Синглтон

Бюджет: $46 000 000
Премьера в мире: 16 июня 2000

rating

В ролях: Сэмюэл Л. Джексон, Джеффри Райт, Кристиан Бэйл, Баста Раймс, Дэн Хедайя, Тони Коллетт, Ричард Раундтри, Ванесса Уильямс, Рубен Сантьяго-Хадсон, Йозеф Зоммер, Линн Тигпен, Филип Боско, Пэт Хингл, Ли Тергесен, Дэниэл фон Барген, Соня Сон, Питер Майо, Мехи Файфер, Гано Гриллз, Кэтрин Келлнер

Описание: Кто, единственный, может справиться с этим и даже не попортить костюм? Шафт! Римейк фильма 1971 года по мотивам одноименного романа Эрнеста Тайдимэна. Уолтер Уэйд-младший, сын Большого Уолтера, влиятельного и богатого торговца недвижимостью, дразнит в баре чернокожего парня, а, когда тот вырезает из салфетки что-то вроде маски куклкуксклановца и набрасывает ему на лицо, все смеются над Уолтером. Трэй выходит на улицу, Уолтер следует за ним и убивает насчастного железной палкой. За это чернокожий детектив Джон Шафт пару раз дал подонку по носу; негодяя освобождают под залог в 200 тысяч, и вскоре он уже издевательски звонит Шафту из Швейцарии, где катается на лыжах. Проходит два года. Шафт засаживает за решетку наркоторговца Пиплза, и там же оказывается арестованный им прямо у трапа самолета убийца Уолтер, который знакомится с Пиплзом в камере. Уолтера опять отпускают под залог в миллион долларов, и тогда Шафт бросает свой полицейский значок и уходит из полиции, чтобы превратить свои отношения с Уолтером в личную вендетту. Он должен найти барменшу Палмьери, которая была свидетельницей убийства. Помогает ему только симпатичная полицейская Терри. Ищут ее и люди Уолтера, хотя та не очень хочет быть найденной. Сам Уолтер приходит к Пиплзу и приносит семейных драгоценностей на 40 тысяч, чтобы Пиплз убил свидетельницу. Пиплз поручает найти девушку двум продажным полицейским. Такова завязка сюжета, а как все сложится дальше в этом боевике, лучше узнать самими.

Качество: BDRip 720p / 60 FPS
Формат: MKV
Видео кодек: H.264
Аудио кодек: AC3
Видео: x264, 1280 x 536 ( 2,40:1 ), 4116 kbps, 60,000 fps, ( 0.100 bpp)
Аудио#1: Русский, AC-3, 48.0 KHz, 6 ch, 384 Kbps ( MVO )
Релиз от:

скриншот   скриншот   скриншот   скриншот   скриншот   скриншот  Автор рипа: slaventi-69
x264 [info]: frame I:2252 Avg QP:14.78 size: 78476
x264 [info]: frame P:90781 Avg QP:17.81 size: 20369
x264 [info]: frame B:264208 Avg QP:22.00 size: 3926
x264 [info]: consecutive B-frames: 3.6% 4.8% 9.7% 15.0% 58.1% 8.8%


Общее
Уникальный идентификатор : 336476399416105191771290006640206290625 (0xFD22FF50765B1893B6EC8154B88C1EC1)
Полное имя : F:\Shaft.(2000).BDRip.720p.(60 Fps).mkv
Формат : Matroska
Версия формата : Version 4
Размер файла : 3,12 Гбайт
Продолжительность : 1 ч. 39 м.
Общий поток : 4504 Кбит/сек
Название фильма : Шафт / Shaft (2000) BDRip 720p (60 Fps)
Дата кодирования : UTC 2020-04-01 09:52:58
Программа кодирования : mkvmerge v42.0.0 ('Overtime') 64-bit
Библиотека кодирования : libebml v1.3.10 + libmatroska v1.5.2

Видео
Идентификатор : 1
Формат : AVC
Формат/Информация : Advanced Video Codec
Профиль формата : High@L4.1
Настройки формата : CABAC / 8 Ref Frames
Параметр CABAC формата : Да
Параметр RefFrames формата : 8 кадров
Идентификатор кодека : V_MPEG4/ISO/AVC
Продолжительность : 1 ч. 39 м.
Битрейт : 4116 Кбит/сек
Ширина : 1280 пикселей
Высота : 536 пикселей
Соотношение сторон : 2,40:1
Режим частоты кадров : Постоянный
Частота кадров : 60,000 кадров/сек
Цветовое пространство : YUV
Субдискретизация насыщенности : 4:2:0
Битовая глубина : 8 бит
Тип развёртки : Прогрессивная
Бит/(Пиксели*Кадры) : 0.100
Размер потока : 2,85 Гбайт (91%)
Заголовок : slaventi-69 ( R.G. HD-Films | 60 fps )
Библиотека кодирования : x264 core 130 r2273 b3065e6
Настройки программы : cabac=1 / ref=8 / deblock=1:-1:-1 / analyse=0x3:0x133 / me=umh / subme=9 / psy=1 / psy_rd=1.00:0.00 / mixed_ref=1 / me_range=26 / chroma_me=1 / trellis=2 / 8x8dct=1 / cqm=0 / deadzone=21,11 / fast_pskip=0 / chroma_qp_offset=-2 / threads=3 / lookahead_threads=1 / sliced_threads=0 / nr=0 / decimate=1 / interlaced=0 / bluray_compat=0 / constrained_intra=0 / bframes=5 / b_pyramid=2 / b_adapt=2 / b_bias=0 / direct=3 / weightb=1 / open_gop=0 / weightp=2 / keyint=250 / keyint_min=25 / scenecut=40 / intra_refresh=0 / rc_lookahead=50 / rc=crf / mbtree=1 / crf=16.0 / qcomp=0.60 / qpmin=0 / qpmax=69 / qpstep=4 / ip_ratio=1.40 / aq=1:1.00
Язык : English
Default : Да
Forced : Нет

Аудио
Идентификатор : 2
Формат : AC-3
Формат/Информация : Audio Coding 3
Коммерческое название : Dolby Digital
Идентификатор кодека : A_AC3
Продолжительность : 1 ч. 39 м.
Вид битрейта : Постоянный
Битрейт : 384 Кбит/сек
Каналы : 6 каналов
Channel layout : L R C LFE Ls Rs
Частота : 48,0 КГц
Частота кадров : 31,250 кадров/сек (1536 SPF)
Битовая глубина : 16 бит
Метод сжатия : С потерями
Размер потока : 273 Мбайт (9%)
Заголовок : MVO
Язык : Russian
ServiceKind/String : Complete Main
Default : Да
Forced : Нет

Текст #1
Идентификатор : 3
Формат : UTF-8
Идентификатор кодека : S_TEXT/UTF8
Идентификатор кодека/Информация : UTF-8 Plain Text
Продолжительность : 1 ч. 33 м.
Битрейт : 85 бит/сек
ElementCount : 930
Размер потока : 59,0 Кбайт (0%)
Язык : Russian
Default : Нет
Forced : Нет

Текст #2
Идентификатор : 4
Формат : UTF-8
Идентификатор кодека : S_TEXT/UTF8
Идентификатор кодека/Информация : UTF-8 Plain Text
Продолжительность : 1 ч. 38 м.
Битрейт : 56 бит/сек
ElementCount : 1227
Размер потока : 40,5 Кбайт (0%)
Язык : English
Default : Нет
Forced : Нет

Меню
00:00:00.000 : en:Crime Scene
00:11:30.231 : en:Out on Bail
00:13:33.145 : en:2 Years Later
00:22:00.110 : en:Old Business
00:27:03.747 : en:The L.D.
00:33:40.893 : en:$1,000,000 Bail
00:44:14.443 : en:Deadly Proposition
00:54:51.788 : en:Confronting Peoples
01:02:57.064 : en:Act of God
01:13:40.499 : en:Confession
01:22:05.295 : en:Shootout
01:29:31.240 : en:Justice?

Просьба к переливающим на другие сайты, в оформлении указывайте пожалуйста авторство группы R.G. HD-Films pb.wtf



Скачать Шафт через торрент https://c.radikal.ru/c37/1909/40/0174d8866dc5.jpg Скачать фильм Шафт через торрент бесплантно в хорошем качестве Описание: Кто, единственный, может справиться с этим и даже не попортить костюм? Шафт! Римейк фильма 1971 года по мотивам одноименного ... 10 10 7
Торрент: Зарегистрирован [2020-04-04 10:04] · скачан: 125 раз
Статус: √ проверено
Размер: 3.12 GB
Как cкачать? Как скачать Шафт через торрент | UTorrent

% Раздел Тема Автор DL S | L
Фильмы (HD 720p, 1080p) (48-60 fps) [ 3.11 GB ] Шафт / Shaft [2019 BDRip 720p / 60 FPS ] от R.G. HD-Films slaventi-69 Скачать
3 | 0

28-11-2019 20:33  

Отключить всю рекламу на сайте

04-04-2020 14:34 Шафт Скачать торрент  

То что доктор прописал во время болезни (карантина)!!! Спасибо большое Вам уважаемый за старый добрый ACTION. Как по мне все равно это лучший фильм из трилогии. Еще раз благодарствую!!!pb.wtf



04-04-2020 15:08 Шафт Скачать торрент  

Смотрите в удовольствие.pb.wtf



05-04-2020 05:51 Шафт Скачать торрент  

Странно как я перед скачиванием не обратил внимание - тут 60 фпс.
Смотреть просто невозможно, картинка такая как-будто смотришь отечественный сериал.

Народ будьте внимательны!pb.wtf



05-04-2020 06:22 Шафт Скачать торрент  

Братан, ты карроче мана, глаза раззуй да? Не пей много водки во время карантина, иначе казлёночком станешь. Давай до свидания. Проходи мимо.pb.wtf



05-04-2020 06:31 Шафт Скачать торрент  

Просто бесит бл..дь, каждый х..й с рейтингом лезет сюда и пытается свои права качать. Вы, мудаки, в школе учились? Читать умеете, бл..дь?
Здесь написато 60 fps и можете идти все на х..й (в смысле те кому что-то не нравится). Не хотел показаться грубым, но запомните, мужики, высота вашего рейтинга это не показатель вашего ума и адекватности.
Человек сделал работу, отблагодарите его за труды и не пиз..ите лишнего.pb.wtf



05-04-2020 21:44 Шафт Скачать торрент  

Torvald'90 писал(а):

Просто бесит бл..дь, каждый х..й с рейтингом лезет сюда и пытается свои права качать. Вы, мудаки, в школе учились? Читать умеете, бл..дь?
Здесь написато 60 fps и можете идти все на х..й (в смысле те кому что-то не нравится). Не хотел показаться грубым, но запомните, мужики, высота вашего рейтинга это не показатель вашего ума и адекватности.
Человек сделал работу, отблагодарите его за труды и не пиз..ите лишнего.

Тише, тише! Тут подобных неадекватов хватает! А большей частью тролей! Нервы дороже! Да и люди кодирующие в 60fps это знают и надеюсь не обращают уже на них внимание! За фильм респект и уважуха!pb.wtf



    Дорогой пользователь! Огромная просьба, поблагодарите релизера, оцените раздачу и оставьте свои комментарий, если Вы скачали Шафт через торрент бесплатно! Внесите свою лепту в развитие PiratBit!
    Комментировать посты могут только пользователи прошедшие не сложную регистрацию
    Показать сообщения:    

    Шафт через торрент
    Скачать бесплатно Шафт
    Шафт скачать торрент
    Шафт смотреть онлайн
    Cкачать фильм Шафт бесплатно
    Шафт скачать торрент в хорошем качестве
    Шафт смотреть онлайн бесплатно в хорошем качестве


    Вы не можете начинать темы
    Вы не можете отвечать на сообщения
    Вы не можете редактировать свои сообщения
    Вы не можете удалять свои сообщения
    Вы не можете голосовать в опросах
    Вы не можете прикреплять файлы к сообщениям
    Вы можете скачивать файлы