Ссылка на приватное зеркало нашего сайта всего за 1$. Внимание количество ограничено!!!

2 сезон

iTunes

1 сезон

1

iTunes

iTunes

iTunes

1 сезон

RePack

30

ИГРА 18+

pack

ВАЖНО

!!Акция!!

Alien_RageХит недели

RePack

MK11
pack

Забери бонус

RePack

jed

!!Акция!!

Alien_Rage

RePack

fifa19

RePack

Assassins Creed: Odyssey

RePack

NEED FOR SPEED™ PAYBACK

4 сезон

9 сезон

Бесстыжие 9 сезон

Все сериалы

все сериалы на PB.wtf

RePack

FAR CRY 5
  

Адвокатъ Ардашевъ. Убийство на водах / Сезон: 2 / Серии: 1-4 из 4 (Алексей Колмогоров) [2020, Детектив, WEB-DLRip] pb.wtf

Адвокатъ Ардашевъ. Убийство на водах через торрент pb.wtf

Размер: 2.28 GB | Добавлен: 6 мес. назад | Торрент скачан:41 раз
Скачать  

04-04-2020 20:00 Адвокатъ Ардашевъ. Убийство на водах Скачать торрент  

Адвокатъ Ардашевъ. Убийство на водах
Год выпуска: 2020
Страна: Россия
Жанр: Детектив
Продолжительность: ~ 00:45:00
Субтитры: отсутствуют

Режиссер: Алексей Колмогоров



В ролях: Антон Хабаров, Алёна Коломина, Николай Денисов, Ксения Щербакова, Александр Зуев, Пётр Кудряшов, Сергей Лактюнькин, Александр Бобров, Максим Радугин, Александр Бобров (II), Дмитрий Кривочуров, Сергей Климков

Описание: Присяжный поверенный Клим Пантелеевич Ардашев прибывает в Кисловодск на отдых, но вовлекается в расследование громких преступлений. В начале двадцатого века Кавказские Минеральные Воды – не только курорт, но и центр азартных игр. Со всех концов страны сюда съезжаются шулеры-гастролёры, чтобы "постричь" за карточным столом овечек-отдыхающих. И вот в Кисловодске происходит серия загадочных убийств карточных шулеров. Каждое новое убийство предсказывается пациентом местной психиатрической лечебницы.

Качество: WEB-DLRip
Формат: AVI

Видео: XviD, ~ 1600 Кбит/с, 720x400
Аудио: 48.0 kHz, AC3 Dolby Digital, 2/0 (L,R) ch, ~ 192 kbps
скриншот  скриншот  скриншот  скриншот  скриншот  

General
Complete name : H:\fiiles x\Адвокатъ Ардашевъ. Убийство на водах..2020.WEB-DLRip.Files-x\01. Адвокатъ Ардашевъ. Убийство на водах..2020.WEB-DLRip.Files-x.avi
Format : AVI
Format/Info : Audio Video Interleave
File size : 571 MiB
Duration : 44mn 17s
Overall bit rate : 1 802 Kbps
Writing application : VirtualDubMod 1.5.10.3 | www.virtualdub-fr.org || (build 2550/release)
Writing library : VirtualDubMod build 2550/release

Video
ID : 0
Format : MPEG-4 Visual
Format profile : Advanced Simple@L5
Format settings, BVOP : 1
Format settings, QPel : No
Format settings, GMC : No warppoints
Format settings, Matrix : Custom
Codec ID : XVID
Codec ID/Hint : XviD
Duration : 44mn 17s
Bit rate : 1 600 Kbps
Width : 720 pixels
Height : 400 pixels
Display aspect ratio : 16:9
Frame rate : 25.000 fps
Color space : YUV
Chroma subsampling : 4:2:0
Bit depth : 8 bits
Scan type : Progressive
Compression mode : Lossy
Bits/(Pixel*Frame) : 0.222
Stream size : 507 MiB (89%)
Writing library : XviD 73

Audio
ID : 1
Format : AC-3
Format/Info : Audio Coding 3
Mode extension : CM (complete main)
Codec ID : 2000
Duration : 44mn 17s
Bit rate mode : Constant
Bit rate : 192 Kbps
Channel(s) : 2 channels
Channel positions : Front: L R
Sampling rate : 48.0 KHz
Bit depth : 16 bits
Compression mode : Lossy
Stream size : 60.8 MiB (11%)
Alignment : Split accross interleaves
Interleave, duration : 40 ms (1.00 video frame)
Interleave, preload duration : 500 ms

pb.wtf



Скачать Адвокатъ Ардашевъ. Убийство на водах через торрент http://i111.fastpic.ru/big/2020/0404/6d/e7ed0dced707bd4f5ae24136112f7e6d.jpg Скачать фильм Адвокатъ Ардашевъ. Убийство на водах через торрент бесплантно в хорошем качестве Описание: Присяжный поверенный Клим Пантелеевич Ардашев прибывает в Кисловодск на отдых, но вовлекается в расследование громких ... 10 10 3
Торрент: Зарегистрирован [2020-04-05 01:52] · скачан: 41 раз
Статус: √ проверено
Размер: 2.28 GB
Как cкачать? Как скачать Адвокатъ Ардашевъ. Убийство на водах через торрент | qTorrent

% Раздел Тема Автор DL S | L
Наши сериалы [ 2.27 GB ] Адвокатъ Ардашевъ. Убийство на водах / Сезон: 2 / Серии: 1-4 из 4 [2020 WEB-DLRip-AVC] bober100 Скачать
2 | 0
Наши сериалы [ 2.33 GB ] Адвокатъ Ардашевъ. Убийство на водах / Сезон: 2 / Серии: 1-4 из 4 [2020 SATRip] bober100 Скачать
1 | 0

28-11-2019 20:33  

Отключить всю рекламу на сайте

    Дорогой пользователь! Огромная просьба, поблагодарите релизера, оцените раздачу и оставьте свои комментарий, если Вы скачали Адвокатъ Ардашевъ. Убийство на водах через торрент бесплатно! Внесите свою лепту в развитие PiratBit!
    Комментировать посты могут только пользователи прошедшие не сложную регистрацию
    Показать сообщения:    

    Адвокатъ Ардашевъ. Убийство на водах через торрент
    Скачать бесплатно Адвокатъ Ардашевъ. Убийство на водах
    Адвокатъ Ардашевъ. Убийство на водах скачать торрент
    Адвокатъ Ардашевъ. Убийство на водах смотреть онлайн
    Cкачать фильм Адвокатъ Ардашевъ. Убийство на водах бесплатно
    Адвокатъ Ардашевъ. Убийство на водах скачать торрент в хорошем качестве
    Адвокатъ Ардашевъ. Убийство на водах смотреть онлайн бесплатно в хорошем качестве


    Вы не можете начинать темы
    Вы не можете отвечать на сообщения
    Вы не можете редактировать свои сообщения
    Вы не можете удалять свои сообщения
    Вы не можете голосовать в опросах
    Вы не можете прикреплять файлы к сообщениям
    Вы можете скачивать файлы