Лицензия

MVO

1

1 сезон

Лицензия

Лицензия

13

MVO

1 сезон

Deluxe Edition

pack

Рекомендуем

30

Repack

ВАЖНО

ВАЖНО

Ghostwire

RePack

jed

RePack

fifa19

RePack

RDR2

RePack

NEED FOR SPEED™ PAYBACK

RePack

Кинопоиск HD

 Острые козырьки 6 сезон

6 сезон

FAR CRY 6

RePack

Лицензия

MVO

1

1 сезон

1 сезон

Лицензия

  

Сирена / Siren / Сезон: 3 / Серии: 1-10 из 10 (Джо Менендес, Ник Копус, Стив Эделсон) [2020, фэнтези, драма, WEB-DL 720p] MVO [Lostfilm]

Сирена через торрент pb.wtf

Размер: 13.16 GB | Добавлен: 2 года 3 мес. назад | Торрент скачан:34 раза
Смотреть онлайн Сирена | Скачать   

04-04-2020 20:23 Сирена Скачать торрент  

Сирена | Siren
«You Can't Escape Her Song»
Год выпуска: 2020
Страна: США
Жанр: фэнтези, драма
Продолжительность: 00:41:00 серия
Перевод: Профессиональный многоголосый | Lostfilm
Субтитры: Eng (SDH)

Режиссер: Джо Менендес, Ник Копус, Стив Эделсон

rating


В ролях: Алекс Роу, Элайн Пауэлл, Фола Эванс-Экинбола, Йен Вердён, Рина Оуэн, Сибонгиле Мламбо, Чад Рук, Кертис Льюм, Рон Юань, Тэмми Гиллис

Описание: Русалки существуют. Некоторые жители маленького портового городка Бристоль-Ков в штате Вашингтон уверены в этом. Здешние ребятишки с пеленок слушают легенды о том, как много лет назад рыбаки и дети океана жили в этом тихом местечке бок о бок. Да и один из отцов-основателей Бристоль-Ков, Чарльз Поунэл, 150 лет назад влюбился в русалку. По крайней мере, так гласит предание. Однако что-то произошло с тех пор: хвостатых дев давно никто не видел у берегов города, сказания о них превратились в сказки на ночь, а потомки Чарльза Поунэла вспоминают старую легенду только по случаю важных торжеств. Вот и молодой скептично настроенный Бен Поунэл (Алекс Роу), работающий морским зоологом, отказывается верить даже собственному насмерть перепуганному другу, утверждающему, что его рыбацкое судно столкнулось с одной из русалок. Вскоре Бену приходится пересмотреть свои взгляды, когда в его научно-исследовательский центр забредает странная девушка. Она представляется именем Рин, но больше ни слова не может проронить, не умеет общаться, не понимает концепции одежды и слабеет от длительного пребывания на воздухе. Рин (Элайн Пауэлл) — русалка, явившаяся в мир людей, чтобы отыскать сестру, попавшую в руки военных. Вот только сможет ли она найти союзников и выжить на суше, и кто окажется опаснее — хищница, способная сломать шею взрослому мужчине, или человек, готовый истребить все живое вокруг себя?..

Качество: WEB-DL 720p
Формат: MKV

Видео: AVC, 1280 x 720 (1.778), 23.976 fps, ~3 653 kbps
Аудио#1 Rus: AC-3, 48 kHz, 6 ch, 384 kbps |Lostfilm|
Аудио#2 Eng: E-AC-3, 48 kHz, 6 ch, 640 kbps |Original|
скриншот  скриншот  скриншот  скриншот  скриншот  

Общее
Уникальный идентификатор : 15669609242153305519127681872550056135 (0xBC9DB62197EF47C5A34F5DFF2F650C7)
Полное имя : E:\_Сериалы\_Сериалы\Сирена\Siren.S03.WEBDL.720p.LostFilm\Siren.S03E01.WEBDL.720p.LF.RGzsRutracker.mkv
Формат : Matroska
Версия формата : Version 4
Размер файла : 1,37 Гбайт
Продолжительность : 41 м. 59 с.
Общий поток : 4 680 Кбит/сек
Дата кодирования : UTC 2020-04-04 19:54:16
Программа кодирования : mkvmerge v44.0.0 ('Domino') 64-bit
Библиотека кодирования : libebml v1.3.10 + libmatroska v1.5.2

Видео
Идентификатор : 1
Формат : AVC
Формат/Информация : Advanced Video Codec
Профиль формата : [email protected]
Настройки формата : CABAC / 4 Ref Frames
Параметр CABAC формата : Да
Параметр RefFrames формата : 4 кадра
Идентификатор кодека : V_MPEG4/ISO/AVC
Продолжительность : 41 м. 59 с.
Вид битрейта : Постоянный
Битрейт : 3 653 Кбит/сек
Номинальный битрейт : 6 000 Кбит/сек
Ширина : 1 280 пикселей
Высота : 720 пикселей
Соотношение сторон : 16:9
Режим частоты кадров : Постоянный
Частота кадров : 23,976 (24000/1001) кадра/сек
Цветовое пространство : YUV
Субдискретизация насыщенности : 4:2:0
Битовая глубина : 8 бит
Тип развёртки : Прогрессивная
Бит/(Пиксели*Кадры) : 0.165
Размер потока : 1,07 Гбайт (78%)
Язык : English
Default : Да
Forced : Нет
Цветовой диапазон : Limited
Основные цвета : BT.709
Характеристики трансфера : BT.709
Коэффициенты матрицы : BT.709

Аудио #1
Идентификатор : 2
Формат : AC-3
Формат/Информация : Audio Coding 3
Коммерческое название : Dolby Digital
Идентификатор кодека : A_AC3
Продолжительность : 41 м. 59 с.
Вид битрейта : Постоянный
Битрейт : 384 Кбит/сек
Каналы : 2 канала
Channel layout : L R
Частота : 48,0 КГц
Частота кадров : 31,250 кадров/сек (1536 SPF)
Метод сжатия : С потерями
Размер потока : 115 Мбайт (8%)
Язык : Russian
Service kind : Complete Main
Default : Да
Forced : Нет

Аудио #2
Идентификатор : 3
Формат : E-AC-3
Формат/Информация : Enhanced AC-3
Коммерческое название : Dolby Digital Plus
Идентификатор кодека : A_EAC3
Продолжительность : 41 м. 59 с.
Вид битрейта : Постоянный
Битрейт : 640 Кбит/сек
Каналы : 6 каналов
Channel layout : L R C LFE Ls Rs
Частота : 48,0 КГц
Частота кадров : 31,250 кадров/сек (1536 SPF)
Метод сжатия : С потерями
Размер потока : 192 Мбайт (14%)
Язык : English
Service kind : Complete Main
Default : Нет
Forced : Нет

Текст
Идентификатор : 4
Формат : UTF-8
Идентификатор кодека : S_TEXT/UTF8
Идентификатор кодека/Информация : UTF-8 Plain Text
Продолжительность : 40 м. 51 с.
Битрейт : 60 бит/сек
Count of elements : 619
Размер потока : 18,2 Кбайт (0%)
Язык : English
Default : Нет
Forced : Нет

Раздача ведётся путём добавления новых серий; при каждом добавлении создаётся новый торрент.
Чтобы начать докачку новой серии, пользователям необходимо сделать следующее:
1. остановить скачивание,
2. удалить старый торрент у себя из клиента (старые серии удалять не надо),
3. скачать новый торрент и запустить его у себя в клиенте вместо старого, при этом указать клиенту путь в старую папку, куда и должно происходить скачивание новых серий.

Ваш клиент при этом должен произвести хеширование (проверку) старой папки (если не производит сам - помогите ему сделать это), и будет докачивать только те серии которых у вас ещё нет. Старые серии при этом не удаляются, а продолжают раздаваться!

Eсли вы уже удалили старые серии, то предотвратить повторную закачку старых серий можно, отжав галочку в соответствующих местах при запуске нового торрента. По возможности, желательно не удалять старые серии как можно дольше, чтобы релизёр не столько продолжал раздавать старые серии, а смог сконцентрироваться на новых.

Совет для тех, кто не хочет ждать перехеширования:
Создайте ещё одну папку рядом с папкой сериала (рядом, а не в ней!!!). Каждую новую серию после удачной загрузки копируйте в новую папку так чтобы ваша основная папка всегда была пуста. Когда ваш новый торрент предложит вам закачать все файлы, выберете только последнюю. Для сидирования же укажите адрес новой папки.

Как закачать отдельный файл из торрента или докачать ранее пропущенные файлы торрента!



Скачать Сирена через торрент https://i5-imageban-ru.translate.goog/out/2020/03/07/d2d8c48586888544fa40e8551867fbb5.png Скачать, смотреть онлайн Сирена бесплантно в хорошем качестве Описание: Русалки существуют. Некоторые жители маленького портового городка Бристоль-Ков в штате Вашингтон уверены в этом. Здешние ... 9.9 10 8
Торрент: Зарегистрирован [2020-05-31 14:19] · скачан: 34 раз
Статус: √ проверено
Размер: 13.16 GB
Как cкачать? Как скачать Сирена через торрент | UTorrent

% Раздел Тема Автор DL S | L
Зарубежные сериалы [ 13.16 GB ] Сирена / Siren / Сезон: 3 / Серии: 1-10 из 10 | MVO | 720p bober100 Скачать
1 | 0
Зарубежные сериалы [ 22.56 GB ] Сирена / Siren / Сезон: 2 / Серии: 1-16 из 16 | LostFilm | 720p bober100 Скачать
1 | 0

28-11-2019 20:33  

Отключить вcю реклaмy на сайте

    Дорогой пользователь! Огромная просьба, поблагодарите релизера, оцените раздачу и оставьте свои комментарий, если Вы скачали Сирена через торрент бесплатно!!
    Комментировать посты могут только пользователи прошедшие не сложную регистрацию
    Показать сообщения:    


    Сирена через торрент
    Скачать бесплатно Сирена
    Сирена скачать торрент
    Сирена смотреть онлайн
    Cкачать фильм Сирена бесплатно
    Сирена скачать торрент в хорошем качестве
    Сирена смотреть онлайн бесплатно в хорошем качестве
    Вы не можете начинать темы
    Вы не можете отвечать на сообщения
    Вы не можете редактировать свои сообщения
    Вы не можете удалять свои сообщения
    Вы не можете голосовать в опросах
    Вы не можете прикреплять файлы к сообщениям
    Вы можете скачивать файлы