2 сезон

iTunes

MVO

1

2 сезон

iTunes

iTunes

1 сезон

RePack

30

Новинка

ВАЖНО

ИГРА 18+

pack

RePack

MK11
pack

Легкие деньги

RePack

jed

RePack

fifa19

RePack

RDR2

RePack

NEED FOR SPEED™ PAYBACK

4 сезон

9 сезон

Бесстыжие 9 сезон

Все сериалы

все сериалы на PB.wtf

RePack

FAR CRY 5

Anonymous, добрый вечер, мы не успеваем собрать деньги на оплату серверов за декабрь и январь, помогите нам пожалуйста в это трудное время. В качестве благодарности мы отключим Вам всю рекламу на сайте (укажите свой ник в строку Ваше имя)!

×
  
Magnet ссылка

Озарк / Ozark / Сезон: 3 / Серии: 1-10 из 10 (Эндрю Бернштейн, Эллен Кёрас, Дэниэл Сакхайм) [2020, триллер, драма, криминал, WEBRip 1080p] MVO [Jaskier] pb.wtf

Озарк через торрент pb.wtf

Размер: 31.92 GB | Добавлен: 9 мес. назад | Торрент скачан:19 раз
Скачать  

05-04-2020 01:22 Озарк Скачать торрент  

Озарк | Ozark
«Their last resort»
Год выпуска: 2020
Страна: США
Студия: Media Rights Capital, Zero Gravity Management
Жанр: триллер, драма, криминал
Продолжительность: ~ 00:59:00 серия
Перевод: Профессиональный (многоголосый закадровый) | студия Jaskier
Субтитры: отсутствуют

Режиссер: Эндрю Бернштейн, Эллен Кёрас, Дэниэл Сакхайм

rating


В ролях: Джейсон Бейтмен, Лора Линни, София Хьюблиц, Джейсон Батлер Харнер, Джулия Гарнер, Энтони Коллинс, Скайлар Гертнер, Джордана Спиро, Кристофер Джеймс Бэйкер, Марк Менчака, Лиза Эмери, Питер Муллан, Эсай Моралес, Бетани Энн Линд и др.

Описание: Финансовый консультант Марти Бёрд вместе с женой Вэнди и остальными членами семьи вынужден тайно переехать из престижного предместья Чикаго в курортный городок Озарк штата Миссури. К неожиданному переезду главного героя вынудили крупные долги, и на новом месте он надеется поправить своё финансовое положение.

Качество: WEBRip 1080p
Формат: | X264 | MKV |

Видео: ~ 7000 kbps, 1920x1080, 23.976 fps
Аудио#1 Rus: AC3, 6 ch, 384 kbps
Аудио#2 Eng: AC3, 6 ch, 384 kbps
скриншот  скриншот  скриншот  

Общее
Уникальный идентификатор : 174840101686922493953203510472854189169 (0x8388FA8E2BBE32238D3F32B109EFB471)
Полное имя : C:\Ozark. Season 3 (WEBRip l 1080p l Jaskier)\Ozark.S03E01.1080p.NF.DD5.1.x264-Jaskier.mkv
Формат : Matroska
Версия формата : Version 2
Размер файла : 3,34 Гбайт
Продолжительность : 1 ч. 0 м.
Режим общего битрейта : Переменный
Общий поток : 7883 Кбит/сек
Дата кодирования : UTC 2020-04-04 20:23:49
Программа кодирования : mkvmerge v7.8.0 ('River Man') 32bit built on Apr 3 2015 12:11:22
Библиотека кодирования : libebml v1.3.1 + libmatroska v1.4.2

Видео
Идентификатор : 1
Формат : AVC
Формат/Информация : Advanced Video Codec
Профиль формата : High@L4
Настройки формата : CABAC / 4 Ref Frames
Параметр CABAC формата : Да
Параметр RefFrames формата : 4 кадра
Идентификатор кодека : V_MPEG4/ISO/AVC
Продолжительность : 1 ч. 0 м.
Вид битрейта : Переменный
Битрейт : 6958 Кбит/сек
Максимальный битрейт : 20,0 Мбит/сек
Ширина : 1920 пикселей
Высота : 1080 пикселей
Соотношение сторон : 16:9
Режим частоты кадров : Постоянный
Частота кадров : 23,976 (24000/1001) кадра/сек
Цветовое пространство : YUV
Субдискретизация насыщенности : 4:2:0
Битовая глубина : 8 бит
Тип развёртки : Прогрессивная
Бит/(Пиксели*Кадры) : 0.140
Размер потока : 2,95 Гбайт (88%)
Библиотека кодирования : x264 core 148 r2717 0d2410d
Настройки программы : cabac=1 / ref=4 / deblock=1:0:0 / analyse=0x3:0x111 / me=umh / subme=10 / psy=1 / psy_rd=1.00:0.00 / mixed_ref=1 / me_range=120 / chroma_me=1 / trellis=2 / 8x8dct=1 / cqm=0 / deadzone=21,11 / fast_pskip=1 / chroma_qp_offset=-2 / threads=8 / lookahead_threads=2 / sliced_threads=0 / nr=0 / decimate=1 / interlaced=0 / bluray_compat=0 / stitchable=1 / constrained_intra=0 / bframes=16 / b_pyramid=2 / b_adapt=2 / b_bias=0 / direct=3 / weightb=1 / open_gop=0 / weightp=2 / keyint=240 / keyint_min=121 / scenecut=0 / intra_refresh=0 / rc_lookahead=240 / rc=crf / mbtree=1 / crf=16.0 / qcomp=0.50 / qpmin=6 / qpmax=51 / qpstep=4 / vbv_maxrate=20000 / vbv_bufsize=25000 / crf_max=0.0 / nal_hrd=vbr / filler=0 / ip_ratio=1.40 / aq=1:0.80
Язык : English
Default : Да
Forced : Нет

Аудио #1
Идентификатор : 2
Формат : AC-3
Формат/Информация : Audio Coding 3
Коммерческое название : Dolby Digital
Идентификатор кодека : A_AC3
Продолжительность : 1 ч. 0 м.
Вид битрейта : Постоянный
Битрейт : 384 Кбит/сек
Каналы : 6 каналов
ChannelLayout : L R C LFE Ls Rs
Частота : 48,0 КГц
Частота кадров : 31,250 кадров/сек (1536 SPF)
Битовая глубина : 16 бит
Метод сжатия : С потерями
Размер потока : 167 Мбайт (5%)
Заголовок : Jaskier
Язык : Russian
ServiceKind/String : Complete Main
Default : Да
Forced : Нет

Аудио #2
Идентификатор : 3
Формат : AC-3
Формат/Информация : Audio Coding 3
Коммерческое название : Dolby Digital
Идентификатор кодека : A_AC3
Продолжительность : 1 ч. 0 м.
Вид битрейта : Постоянный
Битрейт : 384 Кбит/сек
Каналы : 6 каналов
ChannelLayout : L R C LFE Ls Rs
Частота : 48,0 КГц
Частота кадров : 31,250 кадров/сек (1536 SPF)
Битовая глубина : 16 бит
Метод сжатия : С потерями
Размер потока : 167 Мбайт (5%)
Язык : English
ServiceKind/String : Complete Main
Default : Нет
Forced : Нет

Когда раздача ведётся путём добавления новых серий, при каждом добавлении создётся новый торрент. Чтобы начать докачку новой серии, пользователям необходимо сделать следующее:
(1) остановить скачивание,
(2) удалить старый торрент у себя из клиента (старые серии удалять не надо),
(3) скачать новый торрент и запустить его у себя в клиенте вместо старого, при этом указать клиенту путь в старую папку, куда и должно происходить скачивание новых серий.
Ваш клиент при этом должен произвести хеширование (проверку) старой папки (если не производит сам - помогите ему сделать это), и будет докачивать только те серии, которых у вас ещё нет. Старые серии при этом не удаляются, а продолжают раздаваться!
Eсли вы уже удалили старые серии, то предотвратить повторную закачку старых серий можно, отжав галочку в соответсвующих местах при запуске нового торрента. По возможности, желательно не удалять старые серии как можно дольше, чтобы релизёр не столько продолжал раздавать старые серии, а смог сконцентрироваться на новых.
pb.wtf



Скачать Озарк через торрент https://img15.lostpic.net/2020/04/04/bfb0d9acc3effb783966f5104a67c3a2.png Скачать фильм Озарк через торрент бесплантно в хорошем качестве Описание: Финансовый консультант Марти Бёрд вместе с женой Вэнди и остальными членами семьи вынужден тайно переехать из престижного ... 10 10 4
Торрент: Зарегистрирован [2020-04-06 03:33] · скачан: 19 раз
Статус: √ проверено
Размер: 31.92 GB
Как cкачать? Как скачать Озарк через торрент | UTorrent

% Раздел Тема Автор DL S | L
Зарубежные сериалы [ 33.67 GB ] Озарк / Ozark / Сезон: 3 / Серии: 1-10 из 10 [2020 WEBRip 720p] [DVO] killermax2013 Скачать
2 | 0
Зарубежные сериалы [ 8.49 GB ] Озарк / Ozark / Сезон: 3 / Серии: 1-10 из 10 [2020 WEB-DLRip] DUB [Пифагор / Netflix] bober100 Скачать
1 | 0
Зарубежные сериалы [ 10.42 GB ] Озарк / Ozark / Сезон: 3 / Серии: 1-10 из 10 [2020 WEBRip 720p] MVO [Jaskier] bober100 Скачать
1 | 0
Зарубежные сериалы [ 7.58 GB ] Озарк / Ozark / Сезон: 3 / Серии: 1-10 из 10 [2020 WEBRip] MVO [Jaskier] bober100 Скачать
1 | 0
Зарубежные сериалы [ 8.49 GB ] Озарк / Ozark / Сезон: 3 / Серии: 1-10 из 10 [2020 WEBRip] MVO [LostFilm] bober100 Скачать
1 | 0
Зарубежные сериалы [ 49.73 GB ] Озарк / Ozark / Сезон: 3 / Серии: 1-10 из 10 [2020 WEBRip 1080p] MVO [LostFilm] bober100 Скачать
1 | 0
Зарубежные сериалы [ 33.77 GB ] Озарк / Ozark / Сезон: 3 / Серии: 1-10 из 10 [2020 WEB-DL 1080p] DUB [Пифагор / Netflix] bober100 Скачать
1 | 0


Последний раз редактировалось: bober100 (2020-04-06 03:33), всего редактировалось 1 раз

28-11-2019 20:33  

Отключить всю рекламу на сайте

05-04-2020 18:40 Озарк Скачать торрент  

Лучгший сериал, EVER!pb.wtf



    Дорогой пользователь! Огромная просьба, поблагодарите релизера, оцените раздачу и оставьте свои комментарий, если Вы скачали Озарк через торрент бесплатно! Внесите свою лепту в развитие PiratBit!
    Комментировать посты могут только пользователи прошедшие не сложную регистрацию
    Показать сообщения:    

    Озарк через торрент
    Скачать бесплатно Озарк
    Озарк скачать торрент
    Озарк смотреть онлайн
    Cкачать фильм Озарк бесплатно
    Озарк скачать торрент в хорошем качестве
    Озарк смотреть онлайн бесплатно в хорошем качестве


    Вы не можете начинать темы
    Вы не можете отвечать на сообщения
    Вы не можете редактировать свои сообщения
    Вы не можете удалять свои сообщения
    Вы не можете голосовать в опросах
    Вы не можете прикреплять файлы к сообщениям
    Вы можете скачивать файлы