Ссылка на приватное зеркало всего за 1$. Внимание количество ограничено!!!

iTunes

iTunes

iTunes

1

iTunes

iTunes

iTunes

iTunes

iTunes

30
pack

Новость дня

ВАЖНО

!!Акция!!

Alien_RageХит недели

RePack

Resident Evil 21

ИГРА 18+

pack

RePack

jed

!!Акция!!

Alien_Rage

RePack

fifa19

RePack

Assassins Creed: Odyssey

RePack

NEED FOR SPEED™ PAYBACK

4 сезон

9 сезон

Бесстыжие 9 сезон

Все сериалы

все сериалы на PB.wtf

RePack

FAR CRY 5
  

Родина: Форт Салем / Motherland: Fort Salem / Сезон: 1 / Серии: 1-9 из 10 (Стив Эделсон, Хайфа Аль-Мансур, М. Дж. Бассетт) [2020, Фантастика, триллер, драма, WEB-DL 1080p] MVO [Кириллица] pb.wtf

Родина: Форт Салем через торрент pb.wtf

Раздают: 6 [ 445 KB/s ] Качают: 3 [ 0 KB/s ]
Размер: 13.61 GB | Добавлен: 2 д. 18 ч. назад | Торрент скачан:18 раз
Скачать  

05-04-2020 01:38 Родина: Форт Салем Скачать торрент  

Родина: Форт Салем | Motherland: Fort Salem
Год выпуска: 2020
Страна: США
Студия: Gary Sanchez Productions
Жанр: Фантастика, триллер, драма
Продолжительность: ~ 00:45:00
Перевод: Профессиональный (многоголосый) | Кириллица
Субтитры: Английские

Режиссер: Стив Эделсон, Хайфа Аль-Мансур, М. Дж. Бассетт

rating


В ролях: Тейлор Хиксон, Джессика Саттон, Эшли Николь Уильямс, Амалия Хольм, Деметрия МакКинни, Лайн Рени, Энни Джейкоб, Сара Яркин, Кай Брэдбери, Тони Жиру

Описание: В альтернативной Америке XVII века правительство прекратило охоту на ведьм взамен на их помощь в войнах. Триста лет спустя девушки с магическим даром проходят боевую подготовку на базе в Форт-Салеме. Необычный фантастический сериал на грани сказки для взрослых, социальной утопии и армейской драмы. Если бы печально известная охота на салемских ведьм была вовремя отменена, то история Америки бы сильно изменилась. Три юные ведьмы Талли, Раэла и Абигейл живут в современных Штатах, где еще три века назад их прародительницы заключили союз с правительством. Согласно договору, власти не преследуют и не казнят людей со сверхъестественными способностями, которые взамен согласились служить в армии. Девушки-ведьмы XХI века всё так же исполняют свой долг перед родиной. Новобранцы Раэла, Талли и Абигейл обучаются боевой магии, ставшей главным оружием в современных конфликтах и в борьбе с терроризмом. Ведьмы давно потеснили мужчин-солдат на поле битвы, и традиционные гендерные роли поменялись местами. Добро пожаловать в матриархальную колдовскую Америку.

Качество: WEB-DL 1080p
Формат: MKV

Видео: MPEG-4 AVC, ~ 5000 Кбит/с, 1920x1080
Аудио#1: Русский (AC3, 6 ch, 384 Кбит/с)
Аудио#2: английский (E-AC3, 6 ch, 256 Кбит/с)
Аудио#3: английский (AC3, 2 ch, 192 Кбит/с)
скриншот  скриншот  скриншот  скриншот  

Общее
Уникальный идентификатор : 224569594541862893609798464448705120851 (0xA8F287DA2AA3356B905E1D6735DCCA53)
Полное имя : C:Motherland.Fort.Salem.S01.2020.WEB-DL.1080p.ExKinoRay\Motherland.Fort.Salem.S01.E01.2020.WEB-DL.1080p.ExKinoRay.mkv
Формат : Matroska
Версия формата : Version 2
Размер файла : 2,02 Гбайт
Продолжительность : 50 м. 24 с.
Общий поток : 5748 Кбит/сек
Дата кодирования : UTC 2020-04-03 23:36:04
Программа кодирования : mkvmerge v5.8.0 ('No Sleep / Pillow') built on Sep 2 2012 15:37:04
Библиотека кодирования : libebml v1.2.3 + libmatroska v1.3.0

Видео
Идентификатор : 1
Формат : AVC
Формат/Информация : Advanced Video Codec
Профиль формата : High@L4
Настройки формата : CABAC / 2 Ref Frames
Параметр CABAC формата : Да
Параметр RefFrames формата : 2 кадра
Идентификатор кодека : V_MPEG4/ISO/AVC
Продолжительность : 50 м. 24 с.
Битрейт : 5000 Кбит/сек
Ширина : 1920 пикселей
Высота : 1080 пикселей
Соотношение сторон : 16:9
Режим частоты кадров : Постоянный
Частота кадров : 23,976 (24000/1001) кадра/сек
Цветовое пространство : YUV
Субдискретизация насыщенности : 4:2:0
Битовая глубина : 8 бит
Тип развёртки : Прогрессивная
Бит/(Пиксели*Кадры) : 0.097
Размер потока : 1,69 Гбайт (84%)
Язык : English
Default : Да
Forced : Нет
Цветовой диапазон : Limited
Основные цвета : BT.709
Характеристики трансфера : BT.709
Коэффициенты матрицы : BT.709

Аудио #1
Идентификатор : 2
Формат : AC-3
Формат/Информация : Audio Coding 3
Коммерческое название : Dolby Digital
Идентификатор кодека : A_AC3
Продолжительность : 50 м. 24 с.
Вид битрейта : Постоянный
Битрейт : 384 Кбит/сек
Каналы : 6 каналов
ChannelLayout : L R C LFE Ls Rs
Частота : 48,0 КГц
Частота кадров : 31,250 кадров/сек (1536 SPF)
Битовая глубина : 16 бит
Метод сжатия : С потерями
Размер потока : 138 Мбайт (7%)
Язык : Russian
ServiceKind/String : Complete Main
Default : Да
Forced : Нет

Аудио #2
Идентификатор : 3
Формат : E-AC-3
Формат/Информация : Enhanced AC-3
Коммерческое название : Dolby Digital Plus
Идентификатор кодека : A_EAC3
Продолжительность : 50 м. 24 с.
Вид битрейта : Постоянный
Битрейт : 256 Кбит/сек
Каналы : 6 каналов
ChannelLayout : L R C LFE Ls Rs
Частота : 48,0 КГц
Частота кадров : 31,250 кадров/сек (1536 SPF)
Метод сжатия : С потерями
Размер потока : 92,3 Мбайт (4%)
Язык : English
ServiceKind/String : Complete Main
Default : Нет
Forced : Нет

Аудио #3
Идентификатор : 4
Формат : AC-3
Формат/Информация : Audio Coding 3
Коммерческое название : Dolby Digital
Идентификатор кодека : A_AC3
Продолжительность : 50 м. 24 с.
Вид битрейта : Постоянный
Битрейт : 192 Кбит/сек
Каналы : 2 канала
ChannelLayout : L R
Частота : 48,0 КГц
Частота кадров : 31,250 кадров/сек (1536 SPF)
Битовая глубина : 16 бит
Метод сжатия : С потерями
Размер потока : 69,2 Мбайт (3%)
Язык : English
ServiceKind/String : Complete Main
Default : Нет
Forced : Нет

Текст
Идентификатор : 5
Формат : UTF-8
Идентификатор кодека : S_TEXT/UTF8
Идентификатор кодека/Информация : UTF-8 Plain Text
Язык : English
Default : Нет
Forced : Нет

Когда раздача ведётся путём добавления новых серий, при каждом добавлении создётся новый торрент. Чтобы начать докачку новой серии, пользователям необходимо сделать следующее:
(1) остановить скачивание,
(2) удалить старый торрент у себя из клиента (старые серии удалять не надо),
(3) скачать новый торрент и запустить его у себя в клиенте вместо старого, при этом указать клиенту путь в старую папку, куда и должно происходить скачивание новых серий.
Ваш клиент при этом должен произвести хеширование (проверку) старой папки (если не производит сам - помогите ему сделать это), и будет докачивать только те серии, которых у вас ещё нет. Старые серии при этом не удаляются, а продолжают раздаваться!
Eсли вы уже удалили старые серии, то предотвратить повторную закачку старых серий можно, отжав галочку в соответсвующих местах при запуске нового торрента. По возможности, желательно не удалять старые серии как можно дольше, чтобы релизер не столько продолжал раздавать старые серии, а смог сконцентрироваться на новых.
pb.wtf



Скачать Родина: Форт Салем через торрент https://a.radikal.ru/a43/2004/7b/b6eb0d209b8a.jpg Скачать фильм Родина: Форт Салем через торрент бесплантно в хорошем качестве Описание: В альтернативной Америке XVII века правительство прекратило охоту на ведьм взамен на их помощь в войнах. Триста лет спустя ... 9.7 10 10
Info! Золотая раздача, скачанное не засчитывается.
Торрент: Зарегистрирован [2020-05-23 01:12] · скачан: 18 раз
Статус: √ проверено
Размер: 13.61 GB
Как cкачать? Как скачать Родина: Форт Салем через торрент | qTorrent

% Раздел Тема Автор DL S | L
Зарубежные сериалы [ 6.55 GB ] Родина: Форт Салем / Motherland: Fort Salem / Сезон: 1 / Серии: 1-9 из 10 [2020 WEB-DLRip] MVO [Кириллица] bober100 Скачать
3 | 7

28-11-2019 20:33  

Отключить всю рекламу на сайте

    Дорогой пользователь! Огромная просьба, поблагодарите релизера, оцените раздачу и оставьте свои комментарий, если Вы скачали Родина: Форт Салем через торрент бесплатно! Внесите свою лепту в развитие PiratBit!
    Комментировать посты могут только пользователи прошедшие не сложную регистрацию
    Показать сообщения:    

    Родина: Форт Салем через торрент
    Скачать бесплатно Родина: Форт Салем
    Родина: Форт Салем скачать торрент
    Родина: Форт Салем смотреть онлайн
    Cкачать фильм Родина: Форт Салем бесплатно
    Родина: Форт Салем скачать торрент в хорошем качестве
    Родина: Форт Салем смотреть онлайн бесплатно в хорошем качестве


    Вы не можете начинать темы
    Вы не можете отвечать на сообщения
    Вы не можете редактировать свои сообщения
    Вы не можете удалять свои сообщения
    Вы не можете голосовать в опросах
    Вы не можете прикреплять файлы к сообщениям
    Вы можете скачивать файлы