2 сезон

iTunes

MVO

1

2 сезон

iTunes

iTunes

1 сезон

RePack

30

Ultimate

ВАЖНО

ИГРА 18+

pack

RePack

MK11
pack

Легкие деньги

RePack

jed

RePack

fifa19

RePack

RDR2

RePack

NEED FOR SPEED™ PAYBACK

4 сезон

9 сезон

Бесстыжие 9 сезон

Все сериалы

все сериалы на PB.wtf

RePack

FAR CRY 5

Anonymous, доброй ночи, мы не успеваем собрать деньги на оплату серверов за декабрь и январь, помогите нам пожалуйста в это трудное время. В качестве благодарности мы отключим Вам всю рекламу на сайте (укажите свой ник в строку Ваше имя)!

×
  
Magnet ссылка

Игры патриотов / Patriot Games (Филлип Нойс) [1992 г., боевик, триллер, драма, криминал, BDRip 720p / 60 FPS, Профессиональный (многоголосый)] от R.G. HD-Films pb.wtf

Игры патриотов через торрент pb.wtf

Размер: 3.81 GB | Добавлен: 9 мес. назад | Торрент скачан:43 раза
Скачать  

05-04-2020 14:49 Игры патриотов Скачать торрент  

Игры патриотов / Patriot Games
Год выпуска: 1992
Страна: США
Жанр: боевик, триллер, драма, криминал
Продолжительность: 01:56:44
Перевод: Профессиональный (многоголосый закадровый )
Субтитры: Russian, English

Режиссер: Филлип Нойс

Бюджет: $45 000 000
Премьера в мире: 5 июня 1992

rating

В ролях: Харрисон Форд, Энн Арчер, Патрик Бергин, Шон Бин, Тора Бёрч, Джеймс Фокс, Сэмюэл Л. Джексон, Полли Уокер, Дж. Э. Фримен, Джеймс Эрл Джонс

Описание: Бывший сотрудник ЦРУ, а ныне профессор военно-морской академии США Джек Райан, находясь в Лондоне с докладом, случайно становится свидетелем террористического акта Ирландской республиканской армии против королевской семьи. Райан предотвращает трагедию, но ирландские террористы грозят отомстить. Опасная угроза нависает над Райаном, его женой и дочерью…

Качество: BDRip 720p / 60 FPS
Формат: MKV
Видео кодек: H.264
Аудио кодек: AC3
Видео: x264, 1280 x 552 ( 2,35:1 ), 4286 kbps, 60,000 fps, ( 0.101 bpp)
Аудио#1: Русский, AC-3, 48.0 KHz, 6 ch, 384 Kbps ( MVO )
Релиз от:

скриншот   скриншот   скриншот   скриншот   скриншот   скриншот  Автор рипа: slaventi-69
x264 [info]: frame I:2256 Avg QP:15.33 size:115212
x264 [info]: frame P:100549 Avg QP:18.32 size: 22824
x264 [info]: frame B:317051 Avg QP:22.17 size: 3767
x264 [info]: consecutive B-frames: 2.3% 3.0% 8.6% 17.0% 60.8% 8.3%

Общее
Уникальный идентификатор : 237009801329474410786247237424491239116 (0xB24E6D66C4B2093E13E6BCFDAD4396CC)
Полное имя : F:\Patriot.Games.(1992)BDRip.720p.(60 Fps).mkv
Формат : Matroska
Версия формата : Version 4
Размер файла : 3,81 Гбайт
Продолжительность : 1 ч. 56 м.
Общий поток : 4674 Кбит/сек
Название фильма : Игры патриотов / Patriot Games (1992) BDRip 720p (60 Fps)
Дата кодирования : UTC 2020-04-01 10:07:30
Программа кодирования : mkvmerge v42.0.0 ('Overtime') 64-bit
Библиотека кодирования : libebml v1.3.10 + libmatroska v1.5.2

Видео
Идентификатор : 1
Формат : AVC
Формат/Информация : Advanced Video Codec
Профиль формата : High@L4.1
Настройки формата : CABAC / 8 Ref Frames
Параметр CABAC формата : Да
Параметр RefFrames формата : 8 кадров
Идентификатор кодека : V_MPEG4/ISO/AVC
Продолжительность : 1 ч. 56 м.
Битрейт : 4286 Кбит/сек
Ширина : 1280 пикселей
Высота : 552 пикселя
Соотношение сторон : 2,35:1
Режим частоты кадров : Постоянный
Частота кадров : 60,000 кадров/сек
Цветовое пространство : YUV
Субдискретизация насыщенности : 4:2:0
Битовая глубина : 8 бит
Тип развёртки : Прогрессивная
Бит/(Пиксели*Кадры) : 0.101
Размер потока : 3,49 Гбайт (92%)
Заголовок : slaventi-69 ( R.G. HD-Films | 60 fps )
Библиотека кодирования : x264 core 130 r2273 b3065e6
Настройки программы : cabac=1 / ref=8 / deblock=1:-1:-1 / analyse=0x3:0x133 / me=umh / subme=9 / psy=1 / psy_rd=1.00:0.00 / mixed_ref=1 / me_range=26 / chroma_me=1 / trellis=2 / 8x8dct=1 / cqm=0 / deadzone=21,11 / fast_pskip=0 / chroma_qp_offset=-2 / threads=4 / lookahead_threads=1 / sliced_threads=0 / nr=0 / decimate=1 / interlaced=0 / bluray_compat=0 / constrained_intra=0 / bframes=5 / b_pyramid=2 / b_adapt=2 / b_bias=0 / direct=3 / weightb=1 / open_gop=0 / weightp=2 / keyint=250 / keyint_min=25 / scenecut=40 / intra_refresh=0 / rc_lookahead=50 / rc=crf / mbtree=1 / crf=16.5 / qcomp=0.60 / qpmin=0 / qpmax=69 / qpstep=4 / ip_ratio=1.40 / aq=1:1.00
Язык : English
Default : Да
Forced : Нет

Аудио
Идентификатор : 2
Формат : AC-3
Формат/Информация : Audio Coding 3
Коммерческое название : Dolby Digital
Идентификатор кодека : A_AC3
Продолжительность : 1 ч. 56 м.
Вид битрейта : Постоянный
Битрейт : 384 Кбит/сек
Каналы : 6 каналов
Channel layout : L R C LFE Ls Rs
Частота : 48,0 КГц
Частота кадров : 31,250 кадров/сек (1536 SPF)
Битовая глубина : 16 бит
Метод сжатия : С потерями
Размер потока : 320 Мбайт (8%)
Заголовок : MVO [CEE]
Язык : Russian
ServiceKind/String : Complete Main
Default : Да
Forced : Нет

Текст #1
Идентификатор : 3
Формат : UTF-8
Идентификатор кодека : S_TEXT/UTF8
Идентификатор кодека/Информация : UTF-8 Plain Text
Продолжительность : 1 ч. 52 м.
Битрейт : 79 бит/сек
ElementCount : 1119
Размер потока : 65,6 Кбайт (0%)
Язык : Russian
Default : Нет
Forced : Нет

Текст #2
Идентификатор : 4
Формат : UTF-8
Идентификатор кодека : S_TEXT/UTF8
Идентификатор кодека/Информация : UTF-8 Plain Text
Продолжительность : 1 ч. 49 м.
Битрейт : 43 бит/сек
ElementCount : 1198
Размер потока : 35,1 Кбайт (0%)
Язык : English
Default : Нет
Forced : Нет

Меню
00:00:00.000 : :Chapter 1
00:02:36.447 : :Chapter 2
00:05:47.722 : :Chapter 3
00:11:47.039 : :Chapter 4
00:13:28.557 : :Chapter 5
00:19:57.196 : :Chapter 6
00:24:59.873 : :Chapter 7
00:27:54.297 : :Chapter 8
00:33:56.492 : :Chapter 9
00:38:00.736 : :Chapter 10
00:40:04.276 : :Chapter 11
00:51:17.324 : :Chapter 12
00:57:09.342 : :Chapter 13
01:04:10.096 : :Chapter 14
01:10:52.081 : :Chapter 15
01:15:46.833 : :Chapter 16
01:19:18.128 : :Chapter 17
01:27:10.433 : :Chapter 18
01:31:42.663 : :Chapter 19
01:44:04.905 : :Chapter 20
01:51:14.501 : :Chapter 21
01:52:45.175 : :Chapter 22

Просьба к переливающим на другие сайты, в оформлении указывайте пожалуйста авторство группы R.G. HD-Films pb.wtf



Скачать Игры патриотов через торрент http://lostpic.net/images/ececb1a866e2d63f154f6d1a4a3222c1.png Скачать фильм Игры патриотов через торрент бесплантно в хорошем качестве Описание: Бывший сотрудник ЦРУ, а ныне профессор военно-морской академии США Джек Райан, находясь в Лондоне с докладом, случайно становится ... 10 10 8
Info! Золотая раздача, скачанное не засчитывается.
Торрент: Зарегистрирован [2020-04-05 14:49] · скачан: 43 раз
Статус: √ проверено
Размер: 3.81 GB
Как cкачать? Как скачать Игры патриотов через торрент | UTorrent

28-11-2019 20:33  

Отключить всю рекламу на сайте

05-04-2020 16:11 Игры патриотов Скачать торрент  

Спасибо большое за релиз!!! Выходные несомненно удались. Благодарю.pb.wtf



05-04-2020 16:37 Игры патриотов Скачать торрент  

Пожалуйста, смотрите в удовольствие.pb.wtf



    Дорогой пользователь! Огромная просьба, поблагодарите релизера, оцените раздачу и оставьте свои комментарий, если Вы скачали Игры патриотов через торрент бесплатно! Внесите свою лепту в развитие PiratBit!
    Комментировать посты могут только пользователи прошедшие не сложную регистрацию
    Показать сообщения:    

    Игры патриотов через торрент
    Скачать бесплатно Игры патриотов
    Игры патриотов скачать торрент
    Игры патриотов смотреть онлайн
    Cкачать фильм Игры патриотов бесплатно
    Игры патриотов скачать торрент в хорошем качестве
    Игры патриотов смотреть онлайн бесплатно в хорошем качестве


    Вы не можете начинать темы
    Вы не можете отвечать на сообщения
    Вы не можете редактировать свои сообщения
    Вы не можете удалять свои сообщения
    Вы не можете голосовать в опросах
    Вы не можете прикреплять файлы к сообщениям
    Вы можете скачивать файлы