Ссылка на приватное зеркало нашего сайта всего за 1$. Внимание количество ограничено!!!

2 сезон

iTunes

1 сезон

1

2 сезон

2 сезон

iTunes

1 сезон

RePack

30

Ultimate

ВАЖНО

ИГРА 18+

pack

RePack

MK11
pack

Забери бонус

RePack

jed

!!Акция!!

Alien_Rage

RePack

fifa19

RePack

Assassins Creed: Odyssey

RePack

NEED FOR SPEED™ PAYBACK

4 сезон

9 сезон

Бесстыжие 9 сезон

Все сериалы

все сериалы на PB.wtf

RePack

FAR CRY 5
  

Идеальная няня / Chanson douce (Люси Борлето) [2019, Драма, криминал, WEB-DL 1080p] DUB [iTunes] pb.wtf

Идеальная няня через торрент pb.wtf

Размер: 3.7 GB | Добавлен: 7 мес. назад | Торрент скачан:117 раз
Скачать  

06-04-2020 23:02 Идеальная няня Скачать торрент  

Идеальная няня | Chanson douce
Год выпуска: 2019
Страна: Франция
Студия: Why Not Productions, Pan Européenne, StudioCanal
Жанр: Драма, криминал
Продолжительность: 01:35:24
Перевод: Дублированный | iTunes
Субтитры: Русские

Режиссер: Люси Борлето

rating

В ролях: Карин Вьяр, Лейла Бехти, Антуан Райнарц, Ассия Да Сильва, Ноэль Ренод, Рехаб Мехаль Бенсаин, Калипсо Перетятко, Бенжамин Патисье, Макс Патисье, Лор Джаппикони

Описание: У нее есть ключи от их квартиры. Они сами впустили ее в свою жизнь и отдали в ее руки своих детей. Молодая пара не могла даже мечтать, что сможет найти идеальную няню - строгую, опрятную француженку с огромным опытом. Она выглядит заботливой и доброй, но в ее душе скрывается всепоглощающая тьма...

Качество: WEB-DL 1080p
Формат: MKV

Видео: 1920x1036 (1.85:1), 25 fps, h.264 ~5054 kbps avg, 0.102 bit/pixel
Аудио: 48 kHz, AC3 Dolby Digital, 3/2 (L,C,R,l,r) + LFE ch, ~384 kbps
скриншот  скриншот  скриншот  скриншот  

General
Unique ID : 300646924107727412427203078613478688888 (0xE22E7DCB41AD959720384ECAF62C4878)
Complete name : Chanson douce.2019.D.WeB-DL.1080p.mkv
Format : Matroska
Format version : Version 4 / Version 2
File size : 3.70 GiB
Duration : 1h 35mn
Overall bit rate : 5 549 Kbps
Movie name : IDEAL_NANNY_2019_WEB-DL_1080p-BLUEBIRD
Encoded date : UTC 2020-04-06 18:41:26
Writing application : mkvmerge v43.0.0 ('The Quartermaster') 64-bit
Writing library : libebml v1.3.10 + libmatroska v1.5.2
Attachements : cover.jpg
DURATION : 01:31:22.320000000
NUMBER_OF_FRAMES : 1129
NUMBER_OF_BYTES : 70245
_STATISTICS_WRITING_APP : mkvmerge v43.0.0 ('The Quartermaster') 64-bit
_STATISTICS_WRITING_DATE_UT: 2020-04-06 18:41:26
_STATISTICS_TAGS : BPS DURATION NUMBER_OF_FRAMES NUMBER_OF_BYTES

Video
ID : 1
Format : AVC
Format/Info : Advanced Video Codec
Format profile : High@L4.0
Format settings, CABAC : Yes
Format settings, ReFrames : 4 frames
Codec ID : V_MPEG4/ISO/AVC
Duration : 1h 35mn
Bit rate : 5 054 Kbps
Width : 1 920 pixels
Height : 1 036 pixels
Display aspect ratio : 1.85:1
Frame rate mode : Constant
Frame rate : 25.000 fps
Color space : YUV
Chroma subsampling : 4:2:0
Bit depth : 8 bits
Scan type : Progressive
Bits/(Pixel*Frame) : 0.102
Stream size : 3.37 GiB (91%)
Title : IDEAL_NANNY_2019_WEB-DL_1080p-BLUEBIRD
Language : English
Default : Yes
Forced : No
Color primaries : BT.709
Transfer characteristics : BT.709
Matrix coefficients : BT.709
Color range : Limited

Audio
ID : 2
Format : AC-3
Format/Info : Audio Coding 3
Mode extension : CM (complete main)
Format settings, Endianness: Big
Codec ID : A_AC3
Duration : 1h 35mn
Bit rate mode : Constant
Bit rate : 384 Kbps
Channel(s) : 6 channels
Channel positions : Front: L C R, Side: L R, LFE
Sampling rate : 48.0 KHz
Bit depth : 16 bits
Compression mode : Lossy
Delay relative to video : -40ms
Stream size : 262 MiB (7%)
Title : [DUB] DD 5.1 @ 384 kbps (iTunes)
Language : Russian
Default : Yes
Forced : No

Text
ID : 3
Format : UTF-8
Codec ID : S_TEXT/UTF8
Codec ID/Info : UTF-8 Plain Text
Title : Full-length
Language : Russian
Default : No
Forced : No

Menu
00:00:00.000 : en:Глава 1
00:08:36.240 : en:Глава 2
00:16:42.880 : en:Глава 3
00:24:56.880 : en:Глава 4
00:33:18.040 : en:Глава 5
00:41:35.240 : en:Глава 6
00:49:57.600 : en:Глава 7
00:58:23.800 : en:Глава 8
01:06:31.600 : en:Глава 9
01:16:00.480 : en:Глава 10
01:24:10.640 : en:Глава 11

pb.wtf



Скачать Идеальная няня через торрент https://c.radikal.ru/c36/2004/ef/eab14f2b9b50.png Скачать фильм Идеальная няня через торрент бесплантно в хорошем качестве Описание: У нее есть ключи от их квартиры. Они сами впустили ее в свою жизнь и отдали в ее руки своих детей. Молодая пара не могла даже ... 10 10 5
Торрент: Зарегистрирован [2020-04-06 23:02] · скачан: 117 раз
Статус: √ проверено
Размер: 3.7 GB
Как cкачать? Как скачать Идеальная няня через торрент | qTorrent

% Раздел Тема Автор DL S | L
Фильмы [HD 720p, 1080p] (Хороший звук DUB, MVO) [ 7.65 GB ] Идеальная няня / Chanson douce [2019 BDRip 1080p] bober100 Скачать
1 | 0
Фильмы [HD 720p, 1080p] (Хороший звук DUB, MVO) [ 4.17 GB ] Идеальная няня / Chanson douce [2019 BDRip 720p] bober100 Скачать
1 | 0
Фильмы 2019-2020 [DVDrip, WEB-DLRip, HDrip] (DUB, MVO) [ 1.46 GB ] Идеальная няня / Chanson douce [2019 BDRip] bober100 Скачать
1 | 0
Фильмы (Blu-ray, BD-Remux, HDDVD) [ 16.47 GB ] Идеальная няня / Chanson douce [2019 BD Remux 1080p] bober100 Скачать
1 | 0
Фильмы 2019-2020 [DVDrip, WEB-DLRip, HDrip] (DUB, MVO) [ 747 MB ] Идеальная няня / Chanson douce [2019 WEB-DLRip] bober100 Скачать
1 | 0

28-11-2019 20:33  

Отключить всю рекламу на сайте

    Дорогой пользователь! Огромная просьба, поблагодарите релизера, оцените раздачу и оставьте свои комментарий, если Вы скачали Идеальная няня через торрент бесплатно! Внесите свою лепту в развитие PiratBit!
    Комментировать посты могут только пользователи прошедшие не сложную регистрацию
    Показать сообщения:    

    Идеальная няня через торрент
    Скачать бесплатно Идеальная няня
    Идеальная няня скачать торрент
    Идеальная няня смотреть онлайн
    Cкачать фильм Идеальная няня бесплатно
    Идеальная няня скачать торрент в хорошем качестве
    Идеальная няня смотреть онлайн бесплатно в хорошем качестве


    Вы не можете начинать темы
    Вы не можете отвечать на сообщения
    Вы не можете редактировать свои сообщения
    Вы не можете удалять свои сообщения
    Вы не можете голосовать в опросах
    Вы не можете прикреплять файлы к сообщениям
    Вы можете скачивать файлы