Ссылка на приватное зеркало нашего сайта всего за 1$. Внимание количество ограничено!!!

2 сезон

iTunes

1 сезон

1

iTunes

iTunes

iTunes

1 сезон

RePack

30

ИГРА 18+

pack

ВАЖНО

!!Акция!!

Alien_RageХит недели

RePack

MK11
pack

Забери бонус

RePack

jed

!!Акция!!

Alien_Rage

RePack

fifa19

RePack

Assassins Creed: Odyssey

RePack

NEED FOR SPEED™ PAYBACK

4 сезон

9 сезон

Бесстыжие 9 сезон

Все сериалы

все сериалы на PB.wtf

RePack

FAR CRY 5
  

Рикошет / Сезон: 1 / Серии: 1-16 из 16 (Денис Карышев, Вячеслав Кириллов) [2020, Драма, криминал, WEBRip] pb.wtf

Рикошет через торрент pb.wtf

Раздают: 1 [ 7 KB/s ]
Размер: 9.72 GB | Добавлен: 6 мес. назад | Торрент скачан:67 раз
Скачать  

06-04-2020 23:24 Рикошет Скачать торрент  

Рикошет
Год выпуска: 2020
Страна: Россия
Жанр: Драма, криминал
Продолжительность: ~ 00:50:00
Субтитры: отсутствуют

Режиссер: Денис Карышев, Вячеслав Кириллов



В ролях: Александр Устюгов, Екатерина Волкова, Сергей Шнырёв, Пётр Рыков, Виктория Заболотная, Константин Адаев, Данила Якушев, Сесиль Плеже, Ингрид Олеринская, Денис Бургазлиев, Елена Муравьёва, Павел Ворожцов, Анна Бегунова, Роман Евдокимов, Анна Данькова, Андрей Чуманов, Линда Лапиньш, Григорий Зельцер, Никита Люшненко, Людмила Волкова (III), Игорь Климов, Сергей Чудаков, Анастасия Акатова, Юрий Тарасов, Егор Тимцуник, Арсений Робак, Ася Калинина, Евгений Харланов, Дмитрий Кривочуров, Александр Красовский, Виктор Пипа, Наталья Грачёва, Михаил Филиппов (V)

Описание: 20 лет назад Дениса официально похоронили. «Воскреснуть» главного героя заставляет смерть родителей. Чтобы достойно их похоронить, «последний герой» лихих 90-х возвращается в родной Анинск с новым именем, с новым лицом, с новыми документами. Он сразу оказывается в центре криминальных событий городка, погрязшего в преступности. Денис понимает, что ошибок прошлого уже не исправить, но в его силах попытаться изменить кое-что в настоящем. Он остается, чтобы защитить сестру Нику от угрожающей ей опасности. А заодно и разобраться с разгулявшейся преступностью.

Качество: WEBRip
Формат: AVI

Видео: 720x400 (1.80:1), 25 fps, XviD build 73 ~1600 kbps avg, 0.22 bit/pixel
Аудио: 48.0 kHz, AC3 Dolby Digital, 2/0 (L,R) ch, ~ 192 kbps
скриншот  скриншот  скриншот  скриншот  

General
Complete name : H:fiiles xРикошет.(2019).WEBRip.Files-x1.Рикошет.(2019).WEBRip.Files-x.avi
Format : AVI
Format/Info : Audio Video Interleave
File size : 642 MiB
Duration : 49mn 48s
Overall bit rate : 1 802 Kbps
Writing application : VirtualDubMod 1.5.10.3 | www.virtualdub-fr.org || (build 2550/release)
Writing library : VirtualDubMod build 2550/release

Video
ID : 0
Format : MPEG-4 Visual
Format profile : Advanced Simple@L5
Format settings, BVOP : 1
Format settings, QPel : No
Format settings, GMC : No warppoints
Format settings, Matrix : Custom
Codec ID : XVID
Codec ID/Hint : XviD
Duration : 49mn 48s
Bit rate : 1 600 Kbps
Width : 720 pixels
Height : 304 pixels
Display aspect ratio : 2.35:1
Frame rate : 25.000 fps
Color space : YUV
Chroma subsampling : 4:2:0
Bit depth : 8 bits
Scan type : Progressive
Compression mode : Lossy
Bits/(Pixel*Frame) : 0.292
Stream size : 570 MiB (89%)
Writing library : XviD 73

Audio
ID : 1
Format : AC-3
Format/Info : Audio Coding 3
Mode extension : CM (complete main)
Codec ID : 2000
Duration : 49mn 48s
Bit rate mode : Constant
Bit rate : 192 Kbps
Channel(s) : 2 channels
Channel positions : Front: L R
Sampling rate : 48.0 KHz
Bit depth : 16 bits
Compression mode : Lossy
Stream size : 68.4 MiB (11%)
Alignment : Split accross interleaves
Interleave, duration : 40 ms (1.00 video frame)
Interleave, preload duration : 500 ms

Раздача ведётся путём добавления новых серий, при каждом добавлении создаётся новый торрент. Чтобы начать докачку новой серии, пользователям необходимо сделать следующее:

- Остановить скачивание.
- Удалить старый торрент у себя из клиента (старые серии удалять не надо).
- Скачать новый торрент и запустить его у себя в клиенте вместо старого, при этом указать клиенту путь в старую папку куда и должно происходить скачивание новых серий.

Ваш клиент при этом должен произвести хеширование (проверку) старой папки (если не производит сам - помогите ему сделать это), и будет докачивать только те серии которых у вас ещё нет. Старые серии при этом не удаляются, а продолжают раздаваться!
Если вы уже удалили старые серии, то предотвратить повторную закачку старых серий можно, отжав галочку в соответствующих местах при запуске нового торрента. По возможности, желательно не удалять старые серии как можно дольше, чтобы релизер не столько продолжал раздавать старые серии, а смог сконцентрироваться на новых.
pb.wtf



Скачать Рикошет через торрент https://i111.fastpic.ru/big/2020/0406/a0/75b79913646aff40afcf76f3b0daf3a0.jpg Скачать фильм Рикошет через торрент бесплантно в хорошем качестве Описание: 20 лет назад Дениса официально похоронили. «Воскреснуть» главного героя заставляет смерть родителей. Чтобы достойно их ... 10 10 14
Торрент: Зарегистрирован [2020-04-24 19:43] · скачан: 67 раз
Статус: √ проверено
Размер: 9.72 GB
Как cкачать? Как скачать Рикошет через торрент | qTorrent

% Раздел Тема Автор DL S | L
Наши сериалы [ 9.9 GB ] Рикошет / Сезон: 1 / Серии: 1-16 из 16 [2020 SATRip] bober100 Скачать
2 | 0
Наши сериалы [ 19.94 GB ] Рикошет / Сезон: 1 / Серии: 1-16 из 16 [2020 WEBRip 720p] bober100 Скачать
2 | 0
Наши сериалы [ 11.57 GB ] Рикошет / Сезон: 1 / Серии: 1-16 из 16 [2020 WEBRip-AVC] bober100 Скачать
1 | 0
Наши сериалы [ 33.2 GB ] Рикошет / Сезон: 1 / Серии: 1-16 из 16 [2020 WEBRip 1080p] bober100 Скачать
1 | 0

28-11-2019 20:33  

Отключить всю рекламу на сайте

    Дорогой пользователь! Огромная просьба, поблагодарите релизера, оцените раздачу и оставьте свои комментарий, если Вы скачали Рикошет через торрент бесплатно! Внесите свою лепту в развитие PiratBit!
    Комментировать посты могут только пользователи прошедшие не сложную регистрацию
    Показать сообщения:    

    Рикошет через торрент
    Скачать бесплатно Рикошет
    Рикошет скачать торрент
    Рикошет смотреть онлайн
    Cкачать фильм Рикошет бесплатно
    Рикошет скачать торрент в хорошем качестве
    Рикошет смотреть онлайн бесплатно в хорошем качестве


    Вы не можете начинать темы
    Вы не можете отвечать на сообщения
    Вы не можете редактировать свои сообщения
    Вы не можете удалять свои сообщения
    Вы не можете голосовать в опросах
    Вы не можете прикреплять файлы к сообщениям
    Вы можете скачивать файлы