Ссылка на приватное зеркало нашего сайта всего за 1$. Внимание количество ограничено!!!

2 сезон

iTunes

1 сезон

1

iTunes

iTunes

iTunes

1 сезон

RePack

30

ИГРА 18+

pack

ВАЖНО

!!Акция!!

Alien_RageХит недели

RePack

MK11
pack

Забери бонус

RePack

jed

!!Акция!!

Alien_Rage

RePack

fifa19

RePack

Assassins Creed: Odyssey

RePack

NEED FOR SPEED™ PAYBACK

4 сезон

9 сезон

Бесстыжие 9 сезон

Все сериалы

все сериалы на PB.wtf

RePack

FAR CRY 5
  

Ищейка / Сезон: 4 / Серии: 1-16 из 16 (Андрей Головков) [2020, Детектив, HDTVRip] pb.wtf

Ищейка через торрент pb.wtf

Размер: 10.11 GB | Добавлен: 6 мес. назад | Торрент скачан:14 раз
Скачать  

07-04-2020 08:32 Ищейка Скачать торрент  

Ищейка
Год выпуска: 2020
Страна: Россия
Жанр: Детектив
Продолжительность: ~ 00:50:00 серия
Перевод: Не требуется
Субтитры: отсутствуют

Режиссер: Андрей Головков



В ролях: Анна Банщикова, Александр Макогон, Дмитрий Миллер, Владислав Павлов, Эдуард Чекмазов, Владимир Николенко, Анатолий Гущин, Денис Бургазлиев, Ирина Пулина, Юлия Бедарева, Игорь Филиппов, Дмитрий Мазуров, Мария Берсенева, Александр Никольский (II), Анатолий Кот

Описание: Прошло больше двух лет с тех пор, как подполковник Александра Кушнир отошла от дел и с головой погрузилась в семейные хлопоты. Теперь Александра - счастливая мать маленького Миши, жена Бориса. И всё же, по-прежнему до безумия любя семью, Александра всё чаще не находит себе места без работы. Ежедневно распутывать самые сложные дела и одновременно ухаживать за ребёнком – непосильная задача даже для опытного следователя. Но Александра готова рискнуть. Она ещё не подозревает, что кое-кто из её прошлого теперь будет подстерегать её на каждом шагу…

Качество: HDTVRip
Формат: AVI

Видео: XviD, ~ 1600 Кбит/с, 720x400, 25 кадр/с
Аудио: 48.0 kHz, AC3 Dolby Digital, 2/0 (L,R) ch, ~ 192 kbps
скриншот  скриншот  скриншот  скриншот  

Общее
Полное имя : D:Ishhejka-4.HDTVRip.GeneralFilm1.shhejka-4.HDTVRip.GeneralFilm.avi
Формат : AVI
Формат/Информация : Audio Video Interleave
Размер файла : 653 Мбайт
Продолжительность : 50 м.
Общий поток : 1801 Кбит/сек
Программа кодирования : VirtualDubMod 1.5.10.3 | www.virtualdub-fr.org || (build 2550/release)
Библиотека кодирования : VirtualDubMod build 2550/release

Видео
Идентификатор : 0
Формат : MPEG-4 Visual
Профиль формата : Advanced Simple@L5
Параметр BVOP формата : 1
Параметр QPel формата : Нет
Параметр GMC формата : Без точки перехода
Параметр матрицы формата : Выборочная
Идентификатор кодека : XVID
Идентификатор кодека/Подсказка : XviD
Продолжительность : 50 м.
Битрейт : 1599 Кбит/сек
Ширина : 720 пикселей
Высота : 400 пикселей
Соотношение сторон : 16:9
Частота кадров : 25,000 кадров/сек
Цветовое пространство : YUV
Субдискретизация насыщенности : 4:2:0
Битовая глубина : 8 бит
Тип развёртки : Прогрессивная
Метод сжатия : С потерями
Бит/(Пиксели*Кадры) : 0.222
Размер потока : 580 Мбайт (89%)
Библиотека кодирования : XviD 1.2.1 (UTC 2008-12-04)

Аудио
Идентификатор : 1
Формат : AC-3
Формат/Информация : Audio Coding 3
Расширение режима : CM (complete main)
Параметр Endianness формата : Big
Идентификатор кодека : 2000
Продолжительность : 50 м.
Вид битрейта : Постоянный
Битрейт : 192 Кбит/сек
Каналы : 2 канала
Расположение каналов : Front: L R
Частота : 48,0 КГц
Битовая глубина : 16 бит
Метод сжатия : С потерями
Размер потока : 69,6 Мбайт (11%)
Выравнивание : Разделение по промежуткам
Продолжительность промежутка : 40 мс. (1,00 видеокадр)
Время предзагрузки промежутка : 500 мс.

Раздача ведётся путём добавления новых серий, при каждом добавлении создаётся новый торрент. Чтобы начать докачку новой серии, пользователям необходимо сделать следующее:

- Остановить скачивание.
- Удалить старый торрент у себя из клиента (старые серии удалять не надо).
- Скачать новый торрент и запустить его у себя в клиенте вместо старого, при этом указать клиенту путь в старую папку куда и должно происходить скачивание новых серий.

Ваш клиент при этом должен произвести хеширование (проверку) старой папки (если не производит сам - помогите ему сделать это), и будет докачивать только те серии которых у вас ещё нет. Старые серии при этом не удаляются, а продолжают раздаваться!
Если вы уже удалили старые серии, то предотвратить повторную закачку старых серий можно, отжав галочку в соответствующих местах при запуске нового торрента. По возможности, желательно не удалять старые серии как можно дольше, чтобы релизер не столько продолжал раздавать старые серии, а смог сконцентрироваться на новых.
pb.wtf



Скачать Ищейка через торрент https://a.radikal.ru/a39/2004/50/2a1ef1813403.jpg Скачать фильм Ищейка через торрент бесплантно в хорошем качестве Описание: Прошло больше двух лет с тех пор, как подполковник Александра Кушнир отошла от дел и с головой погрузилась в семейные хлопоты. ... 10 10 3
Торрент: Зарегистрирован [2020-04-23 16:12] · скачан: 14 раз
Статус: √ проверено
Размер: 10.11 GB
Как cкачать? Как скачать Ищейка через торрент | qTorrent

% Раздел Тема Автор DL S | L
Наши сериалы [ 10.23 GB ] Ищейка / Сезон: 4 / Серии: 1-16 из 16 [2020 WEB-DLRip] bober100 Скачать
1 | 0
Наши сериалы [ 15.66 GB ] Ищейка / Сезон: 4 / Серии: 1-16 из 16 [2020 WEB-DL 720p] bober100 Скачать
1 | 0
Наши сериалы [ 9.38 GB ] Ищейка / Сезон: 4 / Серии: 1-16 из 16 [2020 SATRip] bober100 Скачать
1 | 0
Наши сериалы [ 12.31 GB ] Ищейка / Сезон: 4 / Серии: 1-16 из 16 [2020 HDTVRip-AVC] bober100 Скачать
1 | 0
Наши сериалы [ 35.44 GB ] Ищейка / Сезон: 4 / Серии: 1-16 из 16 [2020 HDTV 1080i] bober100 Скачать
1 | 0
Наши сериалы [ 20.73 GB ] Ищейка / Сезон: 4 / Серии: 1-16 из 16 [2020 HDTVRip 720p] bober100 Скачать
1 | 0
Наши сериалы [ 9.5 GB ] Ищейка / Сезон: 4 / Серии: 1-16 из 16 [2020 SATRip-AVC] aleksan55 Скачать
1 | 0

28-11-2019 20:33  

Отключить всю рекламу на сайте

    Дорогой пользователь! Огромная просьба, поблагодарите релизера, оцените раздачу и оставьте свои комментарий, если Вы скачали Ищейка через торрент бесплатно! Внесите свою лепту в развитие PiratBit!
    Комментировать посты могут только пользователи прошедшие не сложную регистрацию
    Показать сообщения:    

    Ищейка через торрент
    Скачать бесплатно Ищейка
    Ищейка скачать торрент
    Ищейка смотреть онлайн
    Cкачать фильм Ищейка бесплатно
    Ищейка скачать торрент в хорошем качестве
    Ищейка смотреть онлайн бесплатно в хорошем качестве


    Вы не можете начинать темы
    Вы не можете отвечать на сообщения
    Вы не можете редактировать свои сообщения
    Вы не можете удалять свои сообщения
    Вы не можете голосовать в опросах
    Вы не можете прикреплять файлы к сообщениям
    Вы можете скачивать файлы