2 сезон

iTunes

1 сезон

1

iTunes

iTunes

iTunes

1 сезон

RePack

30

ИГРА 18+

pack

ВАЖНО

!!Акция!!

Alien_RageХит недели

RePack

MK11
pack

Забери бонус

RePack

jed

!!Акция!!

Alien_Rage

RePack

fifa19

RePack

Assassins Creed: Odyssey

RePack

NEED FOR SPEED™ PAYBACK

4 сезон

9 сезон

Бесстыжие 9 сезон

Все сериалы

все сериалы на PB.wtf

RePack

FAR CRY 5
  

Ищейка / Сезон: 4 / Серии: 1-16 из 16 (Андрей Головков) [2020, Детектив, SATRip] pb.wtf

Ищейка через торрент pb.wtf

Размер: 9.38 GB | Добавлен: 6 мес. назад | Торрент скачан:57 раз
Скачать  

07-04-2020 13:16 Ищейка Скачать торрент  

Ищейка
Год выпуска: 2020
Страна: Россия
Жанр: Детектив
Продолжительность: ~ 00:50:00 серия
Перевод: Не требуется
Субтитры: отсутствуют

Режиссер: Андрей Головков



В ролях: Анна Банщикова, Александр Макогон, Дмитрий Миллер, Владислав Павлов, Эдуард Чекмазов, Владимир Николенко, Анатолий Гущин, Денис Бургазлиев, Ирина Пулина, Юлия Бедарева, Игорь Филиппов, Дмитрий Мазуров, Мария Берсенева, Александр Никольский (II), Анатолий Кот

Описание: Прошло больше двух лет с тех пор, как подполковник Александра Кушнир отошла от дел и с головой погрузилась в семейные хлопоты. Теперь Александра - счастливая мать маленького Миши, жена Бориса. И всё же, по-прежнему до безумия любя семью, Александра всё чаще не находит себе места без работы. Ежедневно распутывать самые сложные дела и одновременно ухаживать за ребёнком – непосильная задача даже для опытного следователя. Но Александра готова рискнуть. Она ещё не подозревает, что кое-кто из её прошлого теперь будет подстерегать её на каждом шагу…

Качество: SATRip
Формат: AVI

Видео: XviD, ~ 1650 Кбит/с, 720x400
Аудио: MP3, 2 ch, 192 Кбит/с
скриншот  скриншот  скриншот  скриншот  

Общее
Полное имя : C:\Ishcheika.S04.XviD.SATRip.25Kuzmich\Ishcheika.s04.e01.XviD.SATRip.25Kuzmich.avi
Формат : AVI
Формат/Информация : Audio Video Interleave
Размер файла : 600 Мбайт
Продолжительность : 50 м. 41 с.
Общий поток : 1656 Кбит/сек
Программа кодирования : VirtualDubMod 1.5.10.3 | www.virtualdub-fr.org || (build 2550/release)
Библиотека кодирования : VirtualDubMod build 2550/release

Видео
Идентификатор : 0
Формат : MPEG-4 Visual
Профиль формата : Advanced Simple@L5
Настройки формата : BVOP1
Параметр BVOP формата : 1
Параметр QPel формата : Нет
Параметр GMC формата : Без точки перехода
Параметр матрицы формата : Default (MPEG)
Идентификатор кодека : XVID
Идентификатор кодека/Подсказка : XviD
Продолжительность : 50 м. 41 с.
Битрейт : 1454 Кбит/сек
Ширина : 720 пикселей
Высота : 400 пикселей
Соотношение сторон : 16:9
Частота кадров : 25,000 кадров/сек
Цветовое пространство : YUV
Субдискретизация насыщенности : 4:2:0
Битовая глубина : 8 бит
Тип развёртки : Прогрессивная
Метод сжатия : С потерями
Бит/(Пиксели*Кадры) : 0.202
Размер потока : 527 Мбайт (88%)
Библиотека кодирования : XviD 73

Аудио
Идентификатор : 1
Формат : MPEG Audio
Версия формата : Version 1
Профиль формата : Layer 3
Настройки формата : Joint stereo
Идентификатор кодека : 55
Идентификатор кодека/Подсказка : MP3
Продолжительность : 50 м. 41 с.
Вид битрейта : Постоянный
Битрейт : 192 Кбит/сек
Каналы : 2 канала
Частота : 48,0 КГц
Частота кадров : 41,667 кадра/сек (1152 SPF)
Метод сжатия : С потерями
Размер потока : 69,6 Мбайт (12%)
Выравнивание : Соединение по промежуткам
Продолжительность промежутка : 40 мс. (1,00 видеокадр)
Время предзагрузки промежутка : 504 мс.
Библиотека кодирования : LAME3.99r
Настройки программы : -m j -V 4 -q 2 -lowpass 18.6 -b 192

Раздача ведётся путём добавления новых серий, при каждом добавлении создаётся новый торрент. Чтобы начать докачку новой серии, пользователям необходимо сделать следующее:

- Остановить скачивание.
- Удалить старый торрент у себя из клиента (старые серии удалять не надо).
- Скачать новый торрент и запустить его у себя в клиенте вместо старого, при этом указать клиенту путь в старую папку куда и должно происходить скачивание новых серий.

Ваш клиент при этом должен произвести хеширование (проверку) старой папки (если не производит сам - помогите ему сделать это), и будет докачивать только те серии которых у вас ещё нет. Старые серии при этом не удаляются, а продолжают раздаваться!
Если вы уже удалили старые серии, то предотвратить повторную закачку старых серий можно, отжав галочку в соответствующих местах при запуске нового торрента. По возможности, желательно не удалять старые серии как можно дольше, чтобы релизер не столько продолжал раздавать старые серии, а смог сконцентрироваться на новых.
pb.wtf



Скачать Ищейка через торрент https://i111.fastpic.ru/big/2020/0406/2e/c8bb10a1f6b57bc9fec7be5851da022e.jpg Скачать фильм Ищейка через торрент бесплантно в хорошем качестве Описание: Прошло больше двух лет с тех пор, как подполковник Александра Кушнир отошла от дел и с головой погрузилась в семейные хлопоты. ... 9.2 10 12
Торрент: Зарегистрирован [2020-04-23 16:08] · скачан: 57 раз
Статус: √ проверено
Размер: 9.38 GB
Как cкачать? Как скачать Ищейка через торрент | qTorrent

% Раздел Тема Автор DL S | L
Наши сериалы [ 10.23 GB ] Ищейка / Сезон: 4 / Серии: 1-16 из 16 [2020 WEB-DLRip] bober100 Скачать
1 | 0
Наши сериалы [ 15.66 GB ] Ищейка / Сезон: 4 / Серии: 1-16 из 16 [2020 WEB-DL 720p] bober100 Скачать
1 | 0
Наши сериалы [ 12.31 GB ] Ищейка / Сезон: 4 / Серии: 1-16 из 16 [2020 HDTVRip-AVC] bober100 Скачать
1 | 0
Наши сериалы [ 35.44 GB ] Ищейка / Сезон: 4 / Серии: 1-16 из 16 [2020 HDTV 1080i] bober100 Скачать
1 | 0
Наши сериалы [ 20.73 GB ] Ищейка / Сезон: 4 / Серии: 1-16 из 16 [2020 HDTVRip 720p] bober100 Скачать
1 | 0
Наши сериалы [ 10.11 GB ] Ищейка / Сезон: 4 / Серии: 1-16 из 16 [2020 HDTVRip] bober100 Скачать
1 | 0
Наши сериалы [ 9.5 GB ] Ищейка / Сезон: 4 / Серии: 1-16 из 16 [2020 SATRip-AVC] aleksan55 Скачать
1 | 0


Последний раз редактировалось: bober100 (2020-04-23 16:08), всего редактировалось 6 раз(а)

28-11-2019 20:33  

Отключить всю рекламу на сайте

13-04-2020 12:16 Ищейка Скачать торрент  

приятно смотреть. без напряга.pb.wtf



    Дорогой пользователь! Огромная просьба, поблагодарите релизера, оцените раздачу и оставьте свои комментарий, если Вы скачали Ищейка через торрент бесплатно! Внесите свою лепту в развитие PiratBit!
    Комментировать посты могут только пользователи прошедшие не сложную регистрацию
    Показать сообщения:    

    Ищейка через торрент
    Скачать бесплатно Ищейка
    Ищейка скачать торрент
    Ищейка смотреть онлайн
    Cкачать фильм Ищейка бесплатно
    Ищейка скачать торрент в хорошем качестве
    Ищейка смотреть онлайн бесплатно в хорошем качестве


    Вы не можете начинать темы
    Вы не можете отвечать на сообщения
    Вы не можете редактировать свои сообщения
    Вы не можете удалять свои сообщения
    Вы не можете голосовать в опросах
    Вы не можете прикреплять файлы к сообщениям
    Вы можете скачивать файлы