Ссылка на приватное зеркало нашего сайта всего за 1$. Внимание количество ограничено!!!

2 сезон

iTunes

1 сезон

1

2 сезон

2 сезон

iTunes

1 сезон

RePack

30

Ultimate

ВАЖНО

ИГРА 18+

pack

RePack

MK11
pack

Забери бонус

RePack

jed

!!Акция!!

Alien_Rage

RePack

fifa19

RePack

Assassins Creed: Odyssey

RePack

NEED FOR SPEED™ PAYBACK

4 сезон

9 сезон

Бесстыжие 9 сезон

Все сериалы

все сериалы на PB.wtf

RePack

FAR CRY 5
  

Переворот: кровь в воде / Capsized: Blood in the Water (Роэль Рейн) [2019 г., триллер, WEB-DLRip, любительский многоголосый ] pb.wtf

Переворот: кровь в воде через торрент pb.wtf

Размер: 1.35 GB | Добавлен: 7 мес. назад | Торрент скачан:118 раз
Скачать  

07-04-2020 16:19 Переворот: кровь в воде Скачать торрент  

Переворот: кровь в воде / Capsized: Blood in the Water
Год выпуска: 2019
Страна: США / Stephen David Entertainment
Жанр: триллер
Продолжительность: 01:23:11
Перевод: любительский многоголосый (Синема УС)
Субтитры: Отсутствуют

Режиссер: Роэль Рейн

Премьера в мире: 31 июля 2019

rating

В ролях: Тайлер Блэкберн, Джошуа Клоуз, Вирджиния Дель Соль, Джош Дюамель, Бо Гарретт, Ребека Граф, Майк Марунде, Рок Нуньес, Руаири Родс, Дэвид Стивенс

Описание: После того, как яхта, плывущая во Флориду, переворачивается после неожиданно начавшегося шторма, команда остаётся дрейфовать на несколько дней в леденящих водах атлантики, где они становятся наживкой для группы тигровых акул.
Основано на реальных событиях.

Доп. информация: Присутствует баннер рекламмы

Качество: WEB-DLRip
Формат: AVI
Видео кодек: XviD
Аудио кодек: AC3
Видео: 720x400 (1.80:1), 23.976 fps, XviD MPEG-4 ~1934 kbps avg, 0.28 bit/pixel
Аудио#1: 48 kHz, AC3 Dolby Digital, 2 ch, ~384.00 kbps avg





Общее
Полное имя : D:\torrent\novay zagruzka(dok)\Capsized.Blood.in.the.Water.2019.WEBRip.avi
Формат : AVI
Формат/Информация : Audio Video Interleave
Профиль формата : OpenDML
Размер файла : 1,35 Гбайт
Продолжительность : 1 ч. 23 м.
Общий поток : 2 325 Кбит/сек

Видео
Идентификатор : 0
Формат : MPEG-4 Visual
Профиль формата : Advanced Simple@L5
Настройки формата : BVOP2 / Custom Matrix
Параметр BVOP формата : 2
Параметр QPel формата : Нет
Параметр GMC формата : Без точки перехода
Параметр матрицы формата : Выборочная
Идентификатор кодека : XVID
Идентификатор кодека/Подсказка : XviD
Продолжительность : 1 ч. 23 м.
Битрейт : 1 929 Кбит/сек
Ширина : 720 пикселей
Высота : 400 пикселей
Соотношение сторон : 16:9
Частота кадров : 23,976 (24000/1001) кадра/сек
Цветовое пространство : YUV
Субдискретизация насыщенности : 4:2:0
Битовая глубина : 8 бит
Тип развёртки : Прогрессивная
Метод сжатия : С потерями
Бит/(Пиксели*Кадры) : 0.279
Размер потока : 1,12 Гбайт (83%)
Библиотека кодирования : XviD 1.2.1 (UTC 2008-12-04)

Аудио
Идентификатор : 1
Формат : AC-3
Формат/Информация : Audio Coding 3
Коммерческое название : Dolby Digital
Идентификатор кодека : 2000
Продолжительность : 1 ч. 23 м.
Вид битрейта : Постоянный
Битрейт : 384 Кбит/сек
Каналы : 2 канала
Channel layout : L R
Частота : 48,0 КГц
Частота кадров : 31,250 кадров/сек (1536 SPF)
Метод сжатия : С потерями
Размер потока : 228 Мбайт (17%)
Выравнивание : Соединение по промежуткам
Продолжительность промежутка : 32 мс. (0,77 видеокадр)
Service kind : Complete Main

pb.wtf



Скачать Переворот: кровь в воде через торрент http://pic1.kartinco.top/images/12/y4cv9.jpg Скачать фильм Переворот: кровь в воде через торрент бесплантно в хорошем качестве Описание: После того, как яхта, плывущая во Флориду, переворачивается после неожиданно начавшегося шторма, команда остаётся дрейфовать на ... 10 10 6
Торрент: Зарегистрирован [2020-04-07 16:19] · скачан: 118 раз
Статус: T временная
Размер: 1.35 GB
Как cкачать? Как скачать Переворот: кровь в воде через торрент | qTorrent



Последний раз редактировалось: jump88 (2020-04-07 17:42), всего редактировалось 3 раз(а)

28-11-2019 20:33  

Отключить всю рекламу на сайте

    Дорогой пользователь! Огромная просьба, поблагодарите релизера, оцените раздачу и оставьте свои комментарий, если Вы скачали Переворот: кровь в воде через торрент бесплатно! Внесите свою лепту в развитие PiratBit!
    Комментировать посты могут только пользователи прошедшие не сложную регистрацию
    Показать сообщения:    

    Переворот: кровь в воде через торрент
    Скачать бесплатно Переворот: кровь в воде
    Переворот: кровь в воде скачать торрент
    Переворот: кровь в воде смотреть онлайн
    Cкачать фильм Переворот: кровь в воде бесплатно
    Переворот: кровь в воде скачать торрент в хорошем качестве
    Переворот: кровь в воде смотреть онлайн бесплатно в хорошем качестве


    Вы не можете начинать темы
    Вы не можете отвечать на сообщения
    Вы не можете редактировать свои сообщения
    Вы не можете удалять свои сообщения
    Вы не можете голосовать в опросах
    Вы не можете прикреплять файлы к сообщениям
    Вы можете скачивать файлы