Доктор Стрэндж

Лицензия

Добыча

Дубляж

Уэнсдэй

1 сезон

Тор

Дубляж

В эфире

Дубляж

Там, где раки поют

MVO

Властелин колец

1 сезон

Deluxe

pack

Рекомендуем

30

Пиратка

ВАЖНО

ВАЖНО

Ghostwire

Пиратка

jed

RePack

nioh2

RePack

RDR2

RePack

NEED FOR SPEED™ PAYBACK

RePack

скачать торрент

Кинопоиск HD

Острые козырьки 6 сезон

6 сезон

FAR CRY 6

RePack

скачать торрент

Лицензия

скачать торрент

MVO

1

1 сезон

скачать торрент

1 сезон

скачать торрент

Лицензия

  

Плохие парни навсегда / Bad Boys for Life (Адиль Эль Арби, Билал Фалла) [2020, боевик, триллер, комедия, криминал, BD Remux 1080p] Дубляж (rus, ukr) [Лицензия] +MVO [HDRezka]

Плохие парни навсегда через торрент pb.wtf

Размер: 25.38 GB | Добавлен: 2 года 6 мес. назад | Торрент скачан:34 раза
Смотреть онлайн | Скачать   

09-04-2020 01:30 Плохие парни навсегда Скачать торрент  

Плохие парни навсегда | Bad Boys for Life
Год выпуска: 2020
Страна: США, Мексика
Студия: Columbia Pictures, 2.0 Entertainment, Columbia Pictures Mexico
Жанр: боевик, триллер, комедия, криминал
Продолжительность: 02:03:58
Перевод:
#1: Дублированный | Лицензия
#2: Профессиональный многоголосый | HDRezka
Субтитры: Русские (Forced, Full), украинские (Forced, Full), английские

Режиссер: Адиль Эль Арби, Билал Фалла

rating

В ролях: Уилл Смит, Мартин Лоуренс, Александр Людвиг, Ванесса Энн Хадженс, Джо Пантольяно, Паола Нуньес, Чарльз Мелтон, Кейт дель Кастильо, Хэппи Андерсон

Описание: Бёрнетт рассорился с напарником, оставил службу в полиции Майами и занялся частной сыскной деятельностью. Лоури тем временем переживает кризис среднего возраста и подумывает завязать с холостяцким образом жизни. Параллельно ему приходится разбираться с новым наглым партнёром. «Плохим парням» приходится вновь объединиться, когда за ними начинает охоту албанский наёмник, желающий отомстить за смерть своего брата. Чтобы выжить, бывшие напарники должны забыть о старых обидах.

Качество: BD Remux 1080p
Формат: MKV

Видео: MPEG-4 AVC, 1920x1080, 25.9 Mbit/s, 23.976 fps
Аудио #01: 48 kHz, AC3, 5.1, 448 Kbps | Лицензия | RUS |
Аудио #02: 48 kHz, AC3, 5.1, 448 Kbps | HDRezka | RUS |
Аудио #03: 48 kHz, AC3, 2.0, 192 Kbps | iTunes | UKR |
Аудио #04: 48 kHz, DTS-HD MA, 5.1, 2306 Kbps | Оригинал | ENG |
скриншот  скриншот  скриншот  скриншот  скриншот  

General
Unique ID : 217263817756086687330752090293280740408 (0xA3737D3F2641281EB671FFD6BE4C9438)
Complete name : F:Bad.Boys.for.Life.2020.License.BDREMUX.1080p.seleZen.mkv
Format : Matroska
Format version : Version 4
File size : 25.4 GiB
Duration : 2 h 3 min
Overall bit rate mode : Variable
Overall bit rate : 29.3 Mb/s
Movie name : Bad Boys for Life 2020 from селезень
Encoded date : UTC 2020-05-12 15:11:31
Writing application : mkvmerge v46.0.0 ('No Deeper Escape') 64-bit
Writing library : libebml v1.3.10 + libmatroska v1.5.2

Video
ID : 1
Format : AVC
Format/Info : Advanced Video Codec
Format profile : [email protected]
Format settings : CABAC / 2 Ref Frames
Format settings, CABAC : Yes
Format settings, Reference : 2 frames
Format settings, GOP : M=1, N=10
Codec ID : V_MPEG4/ISO/AVC
Duration : 2 h 3 min
Bit rate mode : Variable
Bit rate : 25.9 Mb/s
Width : 1 920 pixels
Height : 1 080 pixels
Display aspect ratio : 16:9
Frame rate mode : Constant
Frame rate : 23.976 (24000/1001) FPS
Color space : YUV
Chroma subsampling : 4:2:0
Bit depth : 8 bits
Scan type : Progressive
Bits/(Pixel*Frame) : 0.521
Stream size : 22.4 GiB (88%)
Language : English
Default : Yes
Forced : No

Audio #1
ID : 2
Format : AC-3
Format/Info : Audio Coding 3
Commercial name : Dolby Digital
Codec ID : A_AC3
Duration : 2 h 3 min
Bit rate mode : Constant
Bit rate : 448 kb/s
Channel(s) : 6 channels
Channel layout : L R C LFE Ls Rs
Sampling rate : 48.0 kHz
Frame rate : 31.250 FPS (1536 SPF)
Compression mode : Lossy
Stream size : 397 MiB (2%)
Title : Dubbing [License]
Language : Russian
Service kind : Complete Main
Default : Yes
Forced : Yes

Audio #2
ID : 3
Format : AC-3
Format/Info : Audio Coding 3
Commercial name : Dolby Digital
Codec ID : A_AC3
Duration : 2 h 3 min
Bit rate mode : Constant
Bit rate : 448 kb/s
Channel(s) : 6 channels
Channel layout : L R C LFE Ls Rs
Sampling rate : 48.0 kHz
Frame rate : 31.250 FPS (1536 SPF)
Compression mode : Lossy
Stream size : 397 MiB (2%)
Title : MVO [HDRezka]
Language : Russian
Service kind : Complete Main
Default : No
Forced : No

Audio #3
ID : 4
Format : AC-3
Format/Info : Audio Coding 3
Commercial name : Dolby Digital
Codec ID : A_AC3
Duration : 2 h 3 min
Bit rate mode : Constant
Bit rate : 192 kb/s
Channel(s) : 2 channels
Channel layout : L R
Sampling rate : 48.0 kHz
Frame rate : 31.250 FPS (1536 SPF)
Compression mode : Lossy
Stream size : 170 MiB (1%)
Title : iTunes
Language : Ukrainian
Service kind : Complete Main
Default : No
Forced : No

Audio #4
ID : 5
Format : DTS XLL
Format/Info : Digital Theater Systems
Commercial name : DTS-HD Master Audio
Codec ID : A_DTS
Duration : 2 h 3 min
Bit rate mode : Variable
Bit rate : 2 306 kb/s
Channel(s) : 6 channels
Channel layout : C L R Ls Rs LFE
Sampling rate : 48.0 kHz
Frame rate : 93.750 FPS (512 SPF)
Bit depth : 16 bits
Compression mode : Lossless
Stream size : 2.00 GiB (8%)
Title : Original
Language : English
Default : No
Forced : No

Text #1
ID : 6
Format : UTF-8
Codec ID : S_TEXT/UTF8
Codec ID/Info : UTF-8 Plain Text
Duration : 2 h 0 min
Bit rate : 4 b/s
Count of elements : 91
Stream size : 4.27 KiB (0%)
Title : Forced
Language : Russian
Default : Yes
Forced : Yes

Text #2
ID : 7
Format : UTF-8
Codec ID : S_TEXT/UTF8
Codec ID/Info : UTF-8 Plain Text
Duration : 2 h 2 min
Bit rate : 91 b/s
Count of elements : 1794
Stream size : 82.6 KiB (0%)
Title : Full
Language : Russian
Default : No
Forced : No

Text #3
ID : 8
Format : UTF-8
Codec ID : S_TEXT/UTF8
Codec ID/Info : UTF-8 Plain Text
Duration : 1 h 58 min
Bit rate : 4 b/s
Count of elements : 79
Stream size : 3.65 KiB (0%)
Title : Forced
Language : Ukrainian
Default : No
Forced : No

Text #4
ID : 9
Format : UTF-8
Codec ID : S_TEXT/UTF8
Codec ID/Info : UTF-8 Plain Text
Duration : 2 h 2 min
Bit rate : 102 b/s
Count of elements : 1618
Stream size : 92.0 KiB (0%)
Title : Full
Language : Ukrainian
Default : No
Forced : No

Text #5
ID : 10
Format : UTF-8
Codec ID : S_TEXT/UTF8
Codec ID/Info : UTF-8 Plain Text
Duration : 2 h 1 min
Bit rate : 67 b/s
Count of elements : 2221
Stream size : 59.6 KiB (0%)
Language : English
Default : No
Forced : No

Menu
00:00:00.000 : en:Capítulo 01
00:07:33.202 : en:Capítulo 02
00:14:56.645 : en:Capítulo 03
00:23:43.255 : en:Capítulo 04
00:31:05.613 : en:Capítulo 05
00:38:43.070 : en:Capítulo 06
00:45:26.348 : en:Capítulo 07
00:53:27.329 : en:Capítulo 08
01:00:22.035 : en:Capítulo 09
01:07:29.253 : en:Capítulo 10
01:12:55.162 : en:Capítulo 11
01:22:12.344 : en:Capítulo 12
01:29:49.092 : en:Capítulo 13
01:36:47.802 : en:Capítulo 14
01:42:08.580 : en:Capítulo 15
01:53:55.912 : en:Capítulo 16




Скачать Плохие парни навсегда через торрент https://img15.lostpic.net/2020/03/30/e1f9488cf836d90e1e65b1c7a2665b2a.jpg Скачать, смотреть онлайн Плохие парни навсегда бесплантно в хорошем качестве Описание: Бёрнетт рассорился с напарником, оставил службу в полиции Майами и занялся частной сыскной деятельностью. Лоури тем временем ... 8.5 10 6
Торрент: Зарегистрирован [2020-05-12 17:27] · скачан: 34 раз
Статус: √ проверено
Размер: 25.38 GB
Как cкачать? Как скачать Плохие парни навсегда через торрент | UTorrent

% Раздел Тема Автор DL S | L
Фильмы 2019-2020 [DVDrip, WEB-DLRip, HDrip] (DUB, MVO) [ 2.18 GB ] Плохие парни навсегда / Bad Boys for Life | Лицензия 4К EUR | BDRip bober100 Скачать
3 | 0
Фильмы 2019-2020 [DVDrip, WEB-DLRip, HDrip] (DUB, MVO) [ 1.46 GB ] Плохие парни навсегда / Bad Boys for Life | Лицензия Blu-ray 4K EUR | BDRip-AVC bober100 Скачать
1 | 0
Фильмы 2019-2020 [DVDrip, WEB-DLRip, HDrip] (DUB, MVO) [ 2.91 GB ] Плохие парни навсегда / Bad Boys for Life | Лицензия Blu-ray 4K EUR | BDRip-AVC bober100 Скачать
1 | 0
Ultra HD (UHD: 2K, 4K, 8K) [ 20.08 GB ] Плохие парни навсегда / Bad Boys for Life | Лицензия | 2160p, (SDR bober100 Скачать
1 | 0
Ultra HD (UHD: 2K, 4K, 8K) [ 55.86 GB ] Плохие парни навсегда / Bad Boys for Life | Лицензия | 2160p bober100 Скачать
1 | 0
Фильмы (WEB-DL 720p, 1080p) [ 4.24 GB ] Плохие парни навсегда / Bad Boys for Life | iTunes | 720p bober100 Скачать
1 | 0
Фильмы [HD 720p, 1080p] (Хороший звук DUB, MVO) [ 5.8 GB ] Плохие парни навсегда / Bad Boys for Life | Лицензия | 720p bober100 Скачать
1 | 0

28-11-2019 20:33  


Отключить вcю реклaмy на сайте, в т.ч. и в плеере онлайн просмотра!

    Дорогой пользователь! Огромная просьба, поблагодарите релизера, оцените раздачу и оставьте свои комментарий, если Вы скачали Плохие парни навсегда через торрент бесплатно!!
    Комментировать посты могут только пользователи прошедшие не сложную регистрацию
    Показать сообщения:    


    Плохие парни навсегда через торрент
    Скачать бесплатно Плохие парни навсегда
    Плохие парни навсегда скачать торрент
    Плохие парни навсегда смотреть онлайн
    Cкачать фильм Плохие парни навсегда бесплатно
    Плохие парни навсегда скачать торрент в хорошем качестве
    Плохие парни навсегда смотреть онлайн бесплатно в хорошем качестве
    Вы не можете начинать темы
    Вы не можете отвечать на сообщения
    Вы не можете редактировать свои сообщения
    Вы не можете удалять свои сообщения
    Вы не можете голосовать в опросах
    Вы не можете прикреплять файлы к сообщениям
    Вы можете скачивать файлы
    Плохие парни навсегда / Bad Boys for Life [2020, боевик, триллер, комедия, криминал, BD Remux 1080p] Дубляж [Лицензия] +MVO [HDRezka] смотреть онлайн, скачать торрент picoco.icu