Ссылка на приватное зеркало нашего сайта всего за 1$. Внимание количество ограничено!!!

2 сезон

iTunes

1 сезон

1

2 сезон

2 сезон

iTunes

1 сезон

RePack

30

Ultimate

ВАЖНО

ИГРА 18+

pack

RePack

MK11
pack

Забери бонус

RePack

jed

!!Акция!!

Alien_Rage

RePack

fifa19

RePack

Assassins Creed: Odyssey

RePack

NEED FOR SPEED™ PAYBACK

4 сезон

9 сезон

Бесстыжие 9 сезон

Все сериалы

все сериалы на PB.wtf

RePack

FAR CRY 5
  

Тайная жизнь / A Hidden Life (Терренс Малик) [2019, Драма, военный, биография, история, BD Remux 1080p] DUB [iTunes] +MVO [HDRezka Studio] pb.wtf

Тайная жизнь через торрент pb.wtf

Размер: 40.3 GB | Добавлен: 7 мес. назад | Торрент скачан:6 раз
Скачать  

09-04-2020 01:52 Тайная жизнь Скачать торрент  

Тайная жизнь | A Hidden Life
Год выпуска: 2019
Страна: США, Великобритания, Германия
Студия: Studio Babelsberg, Elizabeth Bay Productions, Medienboard Berlin-Brandenburg
Жанр: Драма, военный, биография, история
Продолжительность: 02:54:23
Перевод:
#1: Дублированный | iTunes
#2: Профессиональный (многоголосый) | HDrezka Studio
Субтитры: Русские (Forced, full), английские

Режиссер: Терренс Малик

rating

В ролях: Аугуст Диль, Валери Пахнер, Мария Зимон, Карин Нойхаузер, Тобиас Моретти, Ульрих Маттес, Маттиас Шонартс, Франц Роговский, Карл Маркович, Бруно Ганц

Описание: История символа австрийского сопротивления, Франца Егерштеттера, отказавшегося сражаться за нацистов во Второй мировой войне. Когда Франц сталкивается с угрозой казни за измену, несмотря на многочисленные возможности ее избежать, он продолжает отстаивать свои убеждения, опираясь на веру и любовь своей семьи.

Качество: BD Remux 1080p
Формат: MKV

Видео: MPEG-4 AVC, 1920x1080, 27.3 Mbit/s, 23.976 fps
Аудио #01: 48 kHz, AC3, 5.1, 384 Kbps | iTunes | RUS |
Аудио #02: 48 kHz, AC3, 5.1, 448 Kbps | HDRezka Studio | RUS |
Аудио #03: 48 kHz, DTS-HD MA, 7.1, 4899 Kbps | Оригинал | ENG |
скриншот  скриншот  скриншот  скриншот  скриншот  

General
Unique ID : 56475453911178569389941929328273064600 (0x2A7CC6DB1F4AF8BCF1C5D00DBDD10298)
Complete name : F:A.Hidden.Life.2019.BDREMUX.1080p.seleZen.mkv
Format : Matroska
Format version : Version 4
File size : 40.3 GiB
Duration : 2 h 54 min
Overall bit rate mode : Variable
Overall bit rate : 33.1 Mb/s
Movie name : A Hidden Life 2019 from селезень
Encoded date : UTC 2020-04-08 21:39:37
Writing application : mkvmerge v41.0.0 ('Smarra') 64-bit
Writing library : libebml v1.3.9 + libmatroska v1.5.2

Video
ID : 1
Format : AVC
Format/Info : Advanced Video Codec
Format profile : High@L4.1
Format settings : CABAC / 2 Ref Frames
Format settings, CABAC : Yes
Format settings, Reference : 2 frames
Codec ID : V_MPEG4/ISO/AVC
Duration : 2 h 54 min
Bit rate mode : Variable
Bit rate : 27.3 Mb/s
Width : 1 920 pixels
Height : 1 080 pixels
Display aspect ratio : 16:9
Frame rate mode : Constant
Frame rate : 23.976 (24000/1001) FPS
Color space : YUV
Chroma subsampling : 4:2:0
Bit depth : 8 bits
Scan type : Progressive
Bits/(Pixel*Frame) : 0.550
Stream size : 33.3 GiB (83%)
Language : English
Default : No
Forced : No

Audio #1
ID : 2
Format : AC-3
Format/Info : Audio Coding 3
Commercial name : Dolby Digital
Codec ID : A_AC3
Duration : 2 h 54 min
Bit rate mode : Constant
Bit rate : 384 kb/s
Channel(s) : 6 channels
Channel layout : L R C LFE Ls Rs
Sampling rate : 48.0 kHz
Frame rate : 31.250 FPS (1536 SPF)
Compression mode : Lossy
Stream size : 479 MiB (1%)
Title : Dub [iTunes]
Language : Russian
Service kind : Complete Main
Default : Yes
Forced : Yes

Audio #2
ID : 3
Format : AC-3
Format/Info : Audio Coding 3
Commercial name : Dolby Digital
Codec ID : A_AC3
Duration : 2 h 54 min
Bit rate mode : Constant
Bit rate : 448 kb/s
Channel(s) : 6 channels
Channel layout : L R C LFE Ls Rs
Sampling rate : 48.0 kHz
Frame rate : 31.250 FPS (1536 SPF)
Compression mode : Lossy
Stream size : 559 MiB (1%)
Title : MVO [HDRezka Studio]
Language : Russian
Service kind : Complete Main
Default : No
Forced : No

Audio #3
ID : 4
Format : DTS XLL
Format/Info : Digital Theater Systems
Commercial name : DTS-HD Master Audio
Codec ID : A_DTS
Duration : 2 h 54 min
Bit rate mode : Variable
Bit rate : 4 899 kb/s
Channel(s) : 8 channels
Channel layout : C L R LFE Lb Rb Lss Rss
Sampling rate : 48.0 kHz
Frame rate : 93.750 FPS (512 SPF)
Bit depth : 24 bits
Compression mode : Lossless
Stream size : 5.97 GiB (15%)
Title : Original
Language : English
Default : No
Forced : No

Text #1
ID : 5
Format : UTF-8
Codec ID : S_TEXT/UTF8
Codec ID/Info : UTF-8 Plain Text
Duration : 2 h 50 min
Bit rate : 1 b/s
Count of elements : 35
Stream size : 2.42 KiB (0%)
Title : Forced
Language : Russian
Default : Yes
Forced : Yes

Text #2
ID : 6
Format : UTF-8
Codec ID : S_TEXT/UTF8
Codec ID/Info : UTF-8 Plain Text
Duration : 2 h 47 min
Bit rate : 32 b/s
Count of elements : 891
Stream size : 39.3 KiB (0%)
Title : Full [StasSlender]
Language : Russian
Default : No
Forced : No

Text #3
ID : 7
Format : UTF-8
Codec ID : S_TEXT/UTF8
Codec ID/Info : UTF-8 Plain Text
Duration : 2 h 52 min
Bit rate : 18 b/s
Count of elements : 880
Stream size : 22.9 KiB (0%)
Language : English
Default : No
Forced : No

Menu
00:00:00.000 : :绗?01 绔?
00:04:54.628 : :绗?02 绔?
00:08:14.828 : :绗?03 绔?
00:15:45.153 : :绗?04 绔?
00:21:19.111 : :绗?05 绔?
00:27:34.319 : :绗?06 绔?
00:32:40.542 : :绗?07 绔?
00:39:45.091 : :绗?08 绔?
00:45:37.985 : :绗?09 绔?
00:53:13.857 : :绗?10 绔?
00:58:10.696 : :绗?11 绔?
01:05:58.079 : :绗?12 绔?
01:10:22.510 : :绗?13 绔?
01:15:46.751 : :绗?14 绔?
01:23:50.275 : :绗?15 绔?
01:28:12.496 : :绗?16 绔?
01:35:25.094 : :绗?17 绔?
01:40:12.423 : :绗?18 绔?
01:47:18.807 : :绗?19 绔?
01:54:59.142 : :绗?20 绔?
02:00:59.210 : :绗?21 绔?
02:06:08.519 : :绗?22 绔?
02:11:11.030 : :绗?23 绔?
02:18:41.647 : :绗?24 绔?
02:23:33.855 : :绗?25 绔?
02:31:11.604 : :绗?26 绔?
02:38:04.225 : :绗?27 绔?
02:48:33.770 : :绗?28 绔?

pb.wtf



Скачать Тайная жизнь через торрент https://i111.fastpic.ru/big/2020/0409/29/e66dd93ce6faa8546c05ea6e8eddcd29.jpg Скачать фильм Тайная жизнь через торрент бесплантно в хорошем качестве Описание: История символа австрийского сопротивления, Франца Егерштеттера, отказавшегося сражаться за нацистов во Второй мировой войне. ... 9.8 10 4
Торрент: Зарегистрирован [2020-04-09 01:52] · скачан: 6 раз
Статус: √ проверено
Размер: 40.3 GB
Как cкачать? Как скачать Тайная жизнь через торрент | qTorrent

% Раздел Тема Автор DL S | L
Фильмы 2019-2020 [DVDrip, WEB-DLRip, HDrip] (DUB, MVO) [ 1.46 GB ] Тайная жизнь / A Hidden Life [2019 военный биография история BDRip] bober100 Скачать
5 | 0
Фильмы 2019-2020 [DVDrip, WEB-DLRip, HDrip] (DUB, MVO) [ 2.11 GB ] Тайная жизнь / A Hidden Life [2019 военный биография история BDRip] bober100 Скачать
4 | 0
Фильмы [HD 720p, 1080p] (Хороший звук DUB, MVO) [ 6.08 GB ] Тайная жизнь / A Hidden Life [2019 военный биография история BDRip 720p] +MVO [HDRezka Studio] bober100 Скачать
1 | 0
Фильмы 2019-2020 [DVDrip, WEB-DLRip, HDrip] (DUB, MVO) [ 1.46 GB ] Тайная жизнь / A Hidden Life [2019 военный биография история WEB-DLRip] MVO [HDRezka studio] bober100 Скачать
2 | 0
Фильмы 2019-2020 [DVDrip, WEB-DLRip, HDrip] (DUB, MVO) [ 2.18 GB ] Тайная жизнь / A Hidden Life [2019 военный биография история WEB-DLRip] MVO [HDRezka studio] bober100 Скачать
1 | 0
Фильмы [HD 720p, 1080p] (Хороший звук DUB, MVO) [ 11.44 GB ] Тайная жизнь / A Hidden Life [2019 военный биография история BDRip 1080p] +MVO [HDRezka Studio] bober100 Скачать
2 | 0

28-11-2019 20:33  

Отключить всю рекламу на сайте

    Дорогой пользователь! Огромная просьба, поблагодарите релизера, оцените раздачу и оставьте свои комментарий, если Вы скачали Тайная жизнь через торрент бесплатно! Внесите свою лепту в развитие PiratBit!
    Комментировать посты могут только пользователи прошедшие не сложную регистрацию
    Показать сообщения:    

    Тайная жизнь через торрент
    Скачать бесплатно Тайная жизнь
    Тайная жизнь скачать торрент
    Тайная жизнь смотреть онлайн
    Cкачать фильм Тайная жизнь бесплатно
    Тайная жизнь скачать торрент в хорошем качестве
    Тайная жизнь смотреть онлайн бесплатно в хорошем качестве


    Вы не можете начинать темы
    Вы не можете отвечать на сообщения
    Вы не можете редактировать свои сообщения
    Вы не можете удалять свои сообщения
    Вы не можете голосовать в опросах
    Вы не можете прикреплять файлы к сообщениям
    Вы можете скачивать файлы