Ссылка на приватное зеркало нашего сайта всего за 1$. Внимание количество ограничено!!!

2 сезон

iTunes

1 сезон

1

iTunes

iTunes

iTunes

1 сезон

RePack

30

ИГРА 18+

pack

ВАЖНО

!!Акция!!

Alien_RageХит недели

RePack

MK11
pack

Забери бонус

RePack

jed

!!Акция!!

Alien_Rage

RePack

fifa19

RePack

Assassins Creed: Odyssey

RePack

NEED FOR SPEED™ PAYBACK

4 сезон

9 сезон

Бесстыжие 9 сезон

Все сериалы

все сериалы на PB.wtf

RePack

FAR CRY 5
  

Крутые стволы / Mean Guns (Альберт Пьюн) [1997 г., боевик, триллер, криминал, BDRip 720p / 60 FPS, Профессиональный (многоголосый) Director's cut] от R.G. HD-Films pb.wtf

Крутые стволы через торрент pb.wtf

Раздают: 1 [ 0 KB/s ]
Размер: 3.79 GB | Добавлен: 6 мес. назад | Торрент скачан:36 раз
Скачать  

09-04-2020 13:42 Крутые стволы Скачать торрент  

Крутые стволы / Mean Guns
Год выпуска: 1997
Страна: США
Жанр: боевик, триллер, криминал
Продолжительность: 01:50:21
Перевод: Профессиональный (многоголосый)
Субтитры: Russian, English

Режиссер: Альберт Пьюн

Премьера в мире: 10 июля 1997

rating

В ролях: Кристофер Ламберт, Айс-Ти, Майкл Халсли, Дебора Ван Валкенберг, Тина Коте, Юдзи Окумото, Том Мэтьюз, Кимберли Уоррен, Хантер Дугти, Джерри Ректор, ...

Описание: В только что отстроенной тюрьме некий Мун собирает самых крутых боевиков синдиката и объявляет правила игры, отказаться от которых невозможно. Трое оставшихся в живых должны забрать приз в 10 млн. долларов.
Игра начинается. В общем сражении образуются две группы, из которых выделяется одна — с политическим профессиональным убийцей, его бывшим боссом, очень крутой блондинкой и случайно попавшей в эту историю журналисткой…


Доп. информация:
Существующие версии фильма:
- 1 hr 44 min (104 min)
- 1 hr 45 min (105 min) (TV) (USA)
- 1 hr 50 min (110 min) (video) (USA)
Здесь третий вариант. У нас принято считать, что это Director's cut.

Качество: BDRip 720p / 60 FPS
Формат: MKV
Видео кодек: H.264
Аудио кодек: AC3
Видео: x264, 1280 x 720 ( 16:9 ), 4723 kbps, 60,000 fps, (0.085 bpp)
Аудио#1: Русский, AC-3, 48.0 KHz, 2 ch, 192 Kbps ( MVO Фильм Экспорт )
Релиз от:

скриншот   скриншот   скриншот   скриншот   скриншот   скриншот  Автор рипа: slaventi-69

x264 [info]: frame I:2607 Avg QP:13.87 size: 86177
x264 [info]: frame P:92602 Avg QP:16.76 size: 24325
x264 [info]: frame B:301657 Avg QP:19.38 size: 4734
x264 [info]: consecutive B-frames: 2.5% 2.5% 6.4% 11.5% 72.3% 4.8%


Общее
Уникальный идентификатор : 310232466299234326735861868857236955673 (0xE964998319A52A3F44291C208070A219)
Полное имя : F:\Mean.Guns.(1997).BDRip.720p.(60 Fps).mkv
Формат : Matroska
Версия формата : Version 4
Размер файла : 3,79 Гбайт
Продолжительность : 1 ч. 50 м.
Общий поток : 4919 Кбит/сек
Название фильма : Крутые стволы / Mean Guns (1997) BDRip 720p (60 Fps)
Дата кодирования : UTC 2020-04-08 09:23:19
Программа кодирования : mkvmerge v42.0.0 ('Overtime') 64-bit
Библиотека кодирования : libebml v1.3.10 + libmatroska v1.5.2

Видео
Идентификатор : 1
Формат : AVC
Формат/Информация : Advanced Video Codec
Профиль формата : High@L4.1
Настройки формата : CABAC / 8 Ref Frames
Параметр CABAC формата : Да
Параметр RefFrames формата : 8 кадров
Идентификатор кодека : V_MPEG4/ISO/AVC
Продолжительность : 1 ч. 50 м.
Битрейт : 4723 Кбит/сек
Ширина : 1280 пикселей
Высота : 720 пикселей
Соотношение сторон : 16:9
Режим частоты кадров : Постоянный
Частота кадров : 60,000 кадров/сек
Цветовое пространство : YUV
Субдискретизация насыщенности : 4:2:0
Битовая глубина : 8 бит
Тип развёртки : Прогрессивная
Бит/(Пиксели*Кадры) : 0.085
Размер потока : 3,64 Гбайт (96%)
Заголовок : slaventi-69 ( R.G. HD-Films | 60 fps )
Библиотека кодирования : x264 core 130 r2273 b3065e6
Настройки программы : cabac=1 / ref=8 / deblock=1:-1:-1 / analyse=0x3:0x133 / me=umh / subme=9 / psy=1 / psy_rd=1.00:0.00 / mixed_ref=1 / me_range=26 / chroma_me=1 / trellis=2 / 8x8dct=1 / cqm=0 / deadzone=21,11 / fast_pskip=0 / chroma_qp_offset=-2 / threads=3 / lookahead_threads=1 / sliced_threads=0 / nr=0 / decimate=1 / interlaced=0 / bluray_compat=0 / constrained_intra=0 / bframes=5 / b_pyramid=2 / b_adapt=2 / b_bias=0 / direct=3 / weightb=1 / open_gop=0 / weightp=2 / keyint=250 / keyint_min=25 / scenecut=40 / intra_refresh=0 / rc_lookahead=50 / rc=crf / mbtree=1 / crf=15.0 / qcomp=0.60 / qpmin=0 / qpmax=69 / qpstep=4 / ip_ratio=1.40 / aq=1:1.00
Язык : English
Default : Да
Forced : Нет

Аудио
Идентификатор : 2
Формат : AC-3
Формат/Информация : Audio Coding 3
Коммерческое название : Dolby Digital
Идентификатор кодека : A_AC3
Продолжительность : 1 ч. 50 м.
Вид битрейта : Постоянный
Битрейт : 192 Кбит/сек
Каналы : 2 канала
Channel layout : L R
Частота : 48,0 КГц
Частота кадров : 31,250 кадров/сек (1536 SPF)
Битовая глубина : 16 бит
Метод сжатия : С потерями
Размер потока : 151 Мбайт (4%)
Заголовок : MVO Фильм Экспорт
Язык : Russian
ServiceKind/String : Complete Main
Default : Да
Forced : Нет

Текст #1
Идентификатор : 3
Формат : UTF-8
Идентификатор кодека : S_TEXT/UTF8
Идентификатор кодека/Информация : UTF-8 Plain Text
Продолжительность : 1 ч. 48 м.
Битрейт : 63 бит/сек
ElementCount : 862
Размер потока : 50,3 Кбайт (0%)
Язык : Russian
Default : Нет
Forced : Нет

Текст #2
Идентификатор : 4
Формат : UTF-8
Идентификатор кодека : S_TEXT/UTF8
Идентификатор кодека/Информация : UTF-8 Plain Text
Продолжительность : 1 ч. 47 м.
Битрейт : 49 бит/сек
ElementCount : 1277
Размер потока : 39,1 Кбайт (0%)
Язык : English
Default : Нет
Forced : Нет

Просьба к переливающим на другие сайты, в оформлении указывайте пожалуйста авторство группы R.G. HD-Films pb.wtf



Скачать Крутые стволы через торрент http://s020.radikal.ru/i703/1604/7e/1f51f26abd4e.jpg Скачать фильм Крутые стволы через торрент бесплантно в хорошем качестве Описание: В только что отстроенной тюрьме некий Мун собирает самых крутых боевиков синдиката и объявляет правила игры, отказаться от ... 10 10 3
Торрент: Зарегистрирован [2020-04-09 13:42] · скачан: 36 раз
Статус: √ проверено
Размер: 3.79 GB
Как cкачать? Как скачать Крутые стволы через торрент | qTorrent

28-11-2019 20:33  

Отключить всю рекламу на сайте

09-04-2020 20:13 Крутые стволы Скачать торрент  

Спасибо большое за фильм!!! Когда первый раз посмотрел этот фильм, сразу понравился. Сюжет очень необычный. Даже и не знаю, вроде бы такого сценария больше ни в одном фильме нету. Благодарю!!!pb.wtf



10-04-2020 08:56 Крутые стволы Скачать торрент  

старые боевички это огонь. Спасиб за релиз
Качаю!pb.wtf



    Дорогой пользователь! Огромная просьба, поблагодарите релизера, оцените раздачу и оставьте свои комментарий, если Вы скачали Крутые стволы через торрент бесплатно! Внесите свою лепту в развитие PiratBit!
    Комментировать посты могут только пользователи прошедшие не сложную регистрацию
    Показать сообщения:    

    Крутые стволы через торрент
    Скачать бесплатно Крутые стволы
    Крутые стволы скачать торрент
    Крутые стволы смотреть онлайн
    Cкачать фильм Крутые стволы бесплатно
    Крутые стволы скачать торрент в хорошем качестве
    Крутые стволы смотреть онлайн бесплатно в хорошем качестве


    Вы не можете начинать темы
    Вы не можете отвечать на сообщения
    Вы не можете редактировать свои сообщения
    Вы не можете удалять свои сообщения
    Вы не можете голосовать в опросах
    Вы не можете прикреплять файлы к сообщениям
    Вы можете скачивать файлы