Ссылка на приватное зеркало всего за 1$. Внимание количество ограничено!!!

iTunes

iTunes

iTunes

1

iTunes

iTunes

iTunes

WEBRip

iTunes

30
pack

$ от Little Big

ВАЖНО

!!Акция!!

Alien_RageХит недели

RePack

Resident Evil 21

ИГРА 18+

pack

RePack

jed

!!Акция!!

Alien_Rage

RePack

fifa19

RePack

Assassins Creed: Odyssey

RePack

NEED FOR SPEED™ PAYBACK

4 сезон

9 сезон

Бесстыжие 9 сезон

Все сериалы

все сериалы на PB.wtf

RePack

FAR CRY 5
  

Отель «Белград» (Константин Статский) [2020, Комедия, мелодрама, WEB-DLRip-AVC] [iTunes] pb.wtf

Отель «Белград» через торрент pb.wtf

Раздают: 8 [ 80 KB/s ]
Размер: 1.46 GB | Добавлен: 3 мес. 26 д. назад | Торрент скачан:471 раз
Скачать  

09-04-2020 17:54 Отель «Белград» Скачать торрент  

Отель «Белград»
Год выпуска: 2020
Страна: Россия, Сербия
Жанр: Комедия, мелодрама
Продолжительность: 01:45:58
Перевод: Не требуется + проф. многоголосый на сербскую речь | iTunes
Субтитры: отсутствуют

Режиссер: Константин Статский

rating

В ролях: Милош Бикович, Диана Пожарская, Борис Дергачев, Александра Кузенкина, Любомир Бандович, Елизавета Орашанин, Егор Корешков

Описание: Паша, сербский сердцеед и весельчак – хозяин пятизвездочного отеля в Белграде. Он живет, не зная бед, пока однажды совершенно случайно не портит новое – многомиллионное! – приобретение коллекционера-мафиози. В уплату долга криминальный босс заставляет Пашу жениться на своей дочке. Девушка начинает рьяно готовиться к свадьбе с красавчиком отельером, когда Паша после четырехлетней разлуки неожиданно сталкивается с Дашей, своей русской любовью. В романтичной атмосфере древнего города чувства между ними готовы вспыхнуть вновь…если бы не будущий тесть, настоящий муж, слепой дед и друг-банкрот!..

Качество: WEB-DLRip-AVC
Формат: MKV

Видео: 1024x432, ( 2.40:1), 24 fps, AVC MPEG-4 (x264), High@L4.1 ~ 1583 kbps , 0.149 bit/pixel
Аудио: 48 kHz, AC3 Dolby Digital, 3/2 (L,C,R,l,r) + LFE ch, ~384 kbps
скриншот  скриншот  скриншот  скриншот  

General
Unique ID : 212359477144955352989215293963532382224 (0x9FC2F295F71CD97790D1F3513EF63010)
Complete name : F:\Otel.Belgrad.(2020).WEB-DLRip.(AVC).by.Серый1779.Files-x.mkv
Format : Matroska
Format version : Version 2
File size : 1.46 GiB
Duration : 1 h 45 min
Overall bit rate : 1 968 kb/s
Encoded date : UTC 2020-04-09 10:47:42
Writing application : mkvmerge v7.8.0 ('River Man') 32bit built on Apr 3 2015 12:11:22
Writing library : libebml v1.3.1 + libmatroska v1.4.2

Video
ID : 1
Format : AVC
Format/Info : Advanced Video Codec
Format profile : High@L4.1
Format settings : CABAC / 10 Ref Frames
Format settings, CABAC : Yes
Format settings, RefFrames : 10 frames
Codec ID : V_MPEG4/ISO/AVC
Duration : 1 h 45 min
Bit rate : 1 583 kb/s
Width : 1 024 pixels
Height : 432 pixels
Display aspect ratio : 2.40:1
Frame rate mode : Constant
Frame rate : 24.000 FPS
Color space : YUV
Chroma subsampling : 4:2:0
Bit depth : 8 bits
Scan type : Progressive
Bits/(Pixel*Frame) : 0.149
Stream size : 1.14 GiB (79%)
Writing library : x264 core 146 r2538 121396c
Encoding settings : cabac=1 / ref=10 / deblock=1:-2:-1 / analyse=0x3:0x133 / me=umh / subme=11 / psy=1 / psy_rd=1.00:0.08 / mixed_ref=1 / me_range=32 / chroma_me=1 / trellis=2 / 8x8dct=1 / cqm=0 / deadzone=21,11 / fast_pskip=0 / chroma_qp_offset=-3 / threads=18 / lookahead_threads=3 / sliced_threads=0 / nr=0 / decimate=1 / interlaced=0 / bluray_compat=0 / constrained_intra=0 / bframes=11 / b_pyramid=2 / b_adapt=2 / b_bias=0 / direct=1 / weightb=1 / open_gop=0 / weightp=2 / keyint=250 / keyint_min=23 / scenecut=40 / intra_refresh=0 / rc=2pass / mbtree=0 / bitrate=1583 / ratetol=1.0 / qcomp=0.60 / qpmin=0 / qpmax=69 / qpstep=4 / cplxblur=20.0 / qblur=0.5 / ip_ratio=1.40 / pb_ratio=1.30 / aq=2:1.00
Default : Yes
Forced : No
Color range : Limited
Color primaries : BT.709
Transfer characteristics : BT.709
Matrix coefficients : BT.709

Audio
ID : 2
Format : AC-3
Format/Info : Audio Coding 3
Format settings, Endianness : Big
Codec ID : A_AC3
Duration : 1 h 45 min
Bit rate mode : Constant
Bit rate : 384 kb/s
Channel(s) : 6 channels
Channel positions : Front: L C R, Side: L R, LFE
Sampling rate : 48.0 kHz
Frame rate : 31.250 FPS (1536 SPF)
Bit depth : 16 bits
Compression mode : Lossy
Stream size : 291 MiB (20%)
Service kind : Complete Main
Default : Yes
Forced : No

pb.wtf



Скачать Отель «Белград» через торрент https://c.radikal.ru/c10/2004/da/11175dc43ff9.jpg Скачать фильм Отель «Белград» через торрент бесплантно в хорошем качестве Описание: Паша, сербский сердцеед и весельчак – хозяин пятизвездочного отеля в Белграде. Он живет, не зная бед, пока однажды совершенно ... 9.2 10 10
Торрент: Зарегистрирован [2020-04-09 17:54] · скачан: 471 раз
Статус: √ проверено
Размер: 1.46 GB
Как cкачать? Как скачать Отель «Белград» через торрент | qTorrent

% Раздел Тема Автор DL S | L
Наши фильмы (HD, WEB-DL 720p, 1080p) [ 3.65 GB ] Отель «Белград» [2020 WEB-DL 1080p] bober100 Скачать
6 | 0
Наши фильмы (HD, WEB-DL 720p, 1080p) [ 3 GB ] Отель «Белград» [2020 WEB-DLRip 720p] - ExKinoRay Enigma2010 Скачать
301 | 7
Наши новые фильмы 2018-2019 [ 747 MB ] Отель «Белград» [2020 WEB-DLRip] bober100 Скачать
3 | 0
Наши новые фильмы 2018-2019 [ 1.46 GB ] Отель «Белград» [2020 WEB-DLRip] bober100 Скачать
4 | 0
T Наши фильмы (HD, WEB-DL 720p, 1080p) [ 2.4 GB ] Отель «Белград» [2020 WEBRip 720p] bober100 Скачать
9 | 0

28-11-2019 20:33  

Отключить всю рекламу на сайте

    Дорогой пользователь! Огромная просьба, поблагодарите релизера, оцените раздачу и оставьте свои комментарий, если Вы скачали Отель «Белград» через торрент бесплатно! Внесите свою лепту в развитие PiratBit!
    Комментировать посты могут только пользователи прошедшие не сложную регистрацию
    Показать сообщения:    

    Отель «Белград» через торрент
    Скачать бесплатно Отель «Белград»
    Отель «Белград» скачать торрент
    Отель «Белград» смотреть онлайн
    Cкачать фильм Отель «Белград» бесплатно
    Отель «Белград» скачать торрент в хорошем качестве
    Отель «Белград» смотреть онлайн бесплатно в хорошем качестве


    Вы не можете начинать темы
    Вы не можете отвечать на сообщения
    Вы не можете редактировать свои сообщения
    Вы не можете удалять свои сообщения
    Вы не можете голосовать в опросах
    Вы не можете прикреплять файлы к сообщениям
    Вы можете скачивать файлы