Доктор Стрэндж

Лицензия

Добыча

Дубляж

Дом дракона

1 сезон

Тор

Дубляж

В эфире

Дубляж

Там, где раки поют

MVO

Властелин колец

1 сезон

Ultimate

pack

Рекомендуем

30

Пиратка

ВАЖНО

ВАЖНО

Ghostwire

Пиратка

jed

RePack

nioh2

RePack

RDR2

RePack

NEED FOR SPEED™ PAYBACK

RePack

скачать торрент

Кинопоиск HD

Острые козырьки 6 сезон

6 сезон

FAR CRY 6

RePack

скачать торрент

Лицензия

скачать торрент

MVO

1

1 сезон

скачать торрент

1 сезон

скачать торрент

Лицензия

  

Королевские каникулы / Trouble (Кевин Джонсон) [2019, Мультфильм, комедия, семейный, BD Remux 1080p] Дубляж [iTunes]

Королевские каникулы через торрент pb.wtf

Размер: 15.3 GB | Добавлен: 2 года 7 мес. назад | Торрент скачан:55 раз
Смотреть онлайн | Скачать   

10-04-2020 19:11 Королевские каникулы Скачать торрент  

Королевские каникулы | Trouble
Год выпуска: 2019
Страна: Канада, США, Каймановы острова
Студия: 3QU Media, Cinesite Animation, Storyoscopic Films, Vanguard Animation, WV Enterprises
Жанр: Мультфильм, комедия, семейный
Продолжительность: 01:27:40
Перевод: Дублированный | iTunes
Субтитры: отсутствуют

Режиссер: Кевин Джонсон

rating

В ролях: Биг Шон, Памела Адлон, Люси Хейл, Марисса Джэрет Винокур, Джоэл МакХэйл, Уилмер Вальдеррама, Сет Роллинз, Ди Брэдли Бейкер, Кевин Чэмберлин, Лудо Лефевр

Описание: Наследник миллионного состояния и кучки неблагодарных родственников, его псиятельство Принц вышел из зоны комфорта и оказался на улице. Теперь он мечтает вернуться домой. Для этого ему нужно найти новых друзей, избавиться от назойливых белок и сбросить с хвоста матерого охотника. Королевские каникулы начинаются.

Качество: BD Remux 1080p
Формат: MKV

Видео: MPEG-4 AVC, 1920x1080, 22.6 Mbit/s, 24.000 fps
Аудио #01: 48 kHz, AC3, 5.1, 384 Kbps | iTunes | RUS |
Аудио #02: 48 kHz, DTS-HD MA, 5.1, 1978 Kbps | Оригинал | ENG |
скриншот  скриншот  скриншот  скриншот  скриншот  

General
Unique ID : 225860054626396564316029387926033859913 (0xA9EB1072556300958D8A2C70AFDF0549)
Complete name : E:Video111Trouble.2019.BDRip.1080p.seleZen.mkv
Format : Matroska
Format version : Version 2
File size : 7.36 GiB
Duration : 1 h 27 min
Overall bit rate : 12.0 Mb/s
Movie name : Trouble 2019 from селезень
Encoded date : UTC 2020-04-10 18:15:39
Writing application : mkvmerge v7.8.0 ('River Man') 32bit built on Apr 3 2015 12:11:22
Writing library : libebml v1.3.1 + libmatroska v1.4.2

Video
ID : 1
Format : AVC
Format/Info : Advanced Video Codec
Format profile : [email protected]
Format settings : CABAC / 4 Ref Frames
Format settings, CABAC : Yes
Format settings, Reference : 4 frames
Codec ID : V_MPEG4/ISO/AVC
Duration : 1 h 27 min
Bit rate : 11.0 Mb/s
Width : 1 920 pixels
Height : 1 038 pixels
Display aspect ratio : 1.85:1
Frame rate mode : Constant
Frame rate : 24.000 FPS
Color space : YUV
Chroma subsampling : 4:2:0
Bit depth : 8 bits
Scan type : Progressive
Bits/(Pixel*Frame) : 0.230
Stream size : 6.59 GiB (89%)
Title : Encoded by seleZen
Writing library : x264 core 142 r2431+42 c69a006 tMod [[email protected] X86_64]
Encoding settings : cabac=1 / ref=4 / deblock=1:-2:-2 / analyse=0x3:0x133 / me=umh / subme=10 / psy=1 / fade_compensate=0.00 / psy_rd=1.00:0.00 / mixed_ref=1 / me_range=32 / chroma_me=1 / trellis=2 / 8x8dct=1 / cqm=0 / deadzone=21,11 / fast_pskip=0 / chroma_qp_offset=-2 / threads=24 / lookahead_threads=4 / sliced_threads=0 / nr=0 / decimate=0 / interlaced=0 / bluray_compat=0 / constrained_intra=0 / fgo=0 / bframes=8 / b_pyramid=2 / b_adapt=2 / b_bias=0 / direct=3 / weightb=1 / open_gop=0 / weightp=2 / keyint=240 / keyint_min=24 / scenecut=40 / intra_refresh=0 / rc_lookahead=50 / rc=2pass / mbtree=0 / bitrate=11000 / ratetol=1.0 / qcomp=0.60 / qpmin=0:0:0 / qpmax=51:51:51 / qpstep=4 / cplxblur=20.0 / qblur=0.5 / vbv_maxrate=50000 / vbv_bufsize=62500 / nal_hrd=none / filler=0 / ip_ratio=1.40 / pb_ratio=1.30 / aq=3:0.80 / aq-sensitivity=10.00 / aq-factor=1.00:1.00:1.00 / aq2=0 / aq3=0
Language : English
Default : Yes
Forced : No

Audio #1
ID : 2
Format : AC-3
Format/Info : Audio Coding 3
Commercial name : Dolby Digital
Codec ID : A_AC3
Duration : 1 h 27 min
Bit rate mode : Constant
Bit rate : 384 kb/s
Channel(s) : 6 channels
Channel layout : L R C LFE Ls Rs
Sampling rate : 48.0 kHz
Frame rate : 31.250 FPS (1536 SPF)
Compression mode : Lossy
Stream size : 241 MiB (3%)
Title : iTunes
Language : Russian
Service kind : Complete Main
Default : Yes
Forced : Yes

Audio #2
ID : 3
Format : AC-3
Format/Info : Audio Coding 3
Commercial name : Dolby Digital
Codec ID : A_AC3
Duration : 1 h 27 min
Bit rate mode : Constant
Bit rate : 640 kb/s
Channel(s) : 6 channels
Channel layout : L R C LFE Ls Rs
Sampling rate : 48.0 kHz
Frame rate : 31.250 FPS (1536 SPF)
Compression mode : Lossy
Stream size : 401 MiB (5%)
Title : Original
Language : English
Service kind : Complete Main
Default : No
Forced : No

Menu
00:00:00.000 : en:Chapter 01
00:12:11.250 : en:Chapter 02
00:23:03.292 : en:Chapter 03
00:30:35.542 : en:Chapter 04
00:43:59.792 : en:Chapter 05
00:54:18.958 : en:Chapter 06
01:06:18.000 : en:Chapter 07
01:18:34.583 : en:Chapter 08




Скачать Королевские каникулы через торрент https://i111.fastpic.ru/big/2020/0410/a7/44cdc6f6acd87281ccb11c1c2ee31da7.jpg Скачать, смотреть онлайн Королевские каникулы бесплантно в хорошем качестве Описание: Наследник миллионного состояния и кучки неблагодарных родственников, его псиятельство Принц вышел из зоны комфорта и оказался на ... 10 10 6
Торрент: Зарегистрирован [2020-04-10 19:11] · скачан: 55 раз
Статус: √ проверено
Размер: 15.3 GB
Как cкачать? Как скачать Королевские каникулы через торрент | UTorrent

% Раздел Тема Автор DL S | L
Иностранные мультфильмы [ 1.42 GB ] Королевские каникулы / Trouble | Лицензия | BDRip Twi7ter Скачать
7 | 0
Зарубежные Мультфильмы (BDRip 1080p, 720p, Blu-ray, BD-Remux) [ 3.99 GB ] Королевские каникулы / Trouble | iTunes | 720p bober100 Скачать
1 | 0
Зарубежные Мультфильмы (BDRip 1080p, 720p, Blu-ray, BD-Remux) [ 7.36 GB ] Королевские каникулы / Trouble | iTunes | 1080p bober100 Скачать
1 | 0
Зарубежные Мультфильмы (WEB-DL 720p, 1080p) [ 2.68 GB ] Королевские каникулы / Trouble | iTunes | 720p bober100 Скачать
2 | 0
Иностранные мультфильмы [ 747 MB ] Королевские каникулы / Trouble | iTunes | DLRip bober100 Скачать
1 | 0
Иностранные мультфильмы [ 1.42 GB ] Королевские каникулы / Trouble | iTunes | BDRip bober100 Скачать
1 | 0
Зарубежные Мультфильмы (WEB-DL 720p, 1080p) [ 3.36 GB ] Королевские каникулы / Trouble | iTunes | 1080p bober100 Скачать
2 | 0

28-11-2019 20:33  


Отключить вcю реклaмy на сайте, в т.ч. и в плеере онлайн просмотра!

    Дорогой пользователь! Огромная просьба, поблагодарите релизера, оцените раздачу и оставьте свои комментарий, если Вы скачали Королевские каникулы через торрент бесплатно!!
    Комментировать посты могут только пользователи прошедшие не сложную регистрацию
    Показать сообщения:    


    Королевские каникулы через торрент
    Скачать бесплатно Королевские каникулы
    Королевские каникулы скачать торрент
    Королевские каникулы смотреть онлайн
    Cкачать фильм Королевские каникулы бесплатно
    Королевские каникулы скачать торрент в хорошем качестве
    Королевские каникулы смотреть онлайн бесплатно в хорошем качестве
    Вы не можете начинать темы
    Вы не можете отвечать на сообщения
    Вы не можете редактировать свои сообщения
    Вы не можете удалять свои сообщения
    Вы не можете голосовать в опросах
    Вы не можете прикреплять файлы к сообщениям
    Вы можете скачивать файлы
    Королевские каникулы / Trouble [2019, Мультфильм, комедия, семейный, BD Remux 1080p] Дубляж [iTunes] смотреть онлайн, скачать торрент picoco.icu