Всегда рабочее зеркало без VPN и Proxy просто перед .vidak.icu напиши любое слово или цифру, Пример http://xeo9.vidak.icu

MVO

Лицензия

1 сезон

1

1 сезон

iTunes

1 сезон

13

1 сезон

Deluxe

pack

Рекомендуем

Пиратка

30

ВАЖНО

RePack

MK11

RePack

jed

RePack

fifa19

RePack

RDR2

RePack

NEED FOR SPEED™ PAYBACK

Кинопоиск HD

6 сезон

 Острые козырьки 6 сезон

Все сериалы

все сериалы на PB.wtf

RePack

FAR CRY 5
  
Magnet ссылка

Адвокатъ Ардашевъ. Тайна персидского обоза / Сезон: 3 / Серии: 1-4 из 4 (Анарио Мамедов) [2020, Детектив, SATRip] pb.wtf

Адвокатъ Ардашевъ. Тайна персидского обоза через торрент pb.wtf

Размер: 2.35 GB | Добавлен: 2 года 2 мес. назад | Торрент скачан:80 раз
Смотреть онлайн Адвокатъ Ардашевъ. Тайна персидского обоза | Скачать    Ребята, помогите собрать деньги на оплату серверов!!!

11-04-2020 10:14 Адвокатъ Ардашевъ. Тайна персидского обоза Скачать торрент  

Адвокатъ Ардашевъ: Тайна персидского обоза
Год выпуска: 2020
Страна: Россия
Жанр: Детектив
Продолжительность: ~ 00:45:00
Субтитры: отсутствуют

Режиссер: Анарио Мамедов

В ролях: Антон Хабаров, Янина Мелехова, Валерий Новиков, Артём Мельничук, Алексей Кондрахов, Денис Беспалый, Максим Литовченко, Глеб Подгородинский, Дмитрий Блохин, Кристина Борейко, Леонид Ардо, Дмитрий Грачёв (II), Максим Конев

Описание: По одноименному роману Ивана Любенко. 1909 год, Ставрополь. Пожилую домовладелицу Загорскую приводят в ужас мистические явления, происходящие в доме. Самовозгорание свечей, страшные звуки в дымоходе, стук в окна. Ардашев тщательно обследует все комнаты, но объяснения не находит. В это же время при проведении земляных работ на центральной площади обнаруживают скелет мужчины в форме поручика. Он пролежал в земле более восьмидесяти лет. В его карманах рабочие находят часы с дарственной надписью на имя Игнатьева. Ту же фамилию носила в девичестве госпожа Загорская. Она рассказывает Ардашеву, что в далеком 1828-м году погиб ее отец, полковник Игнатьев. Но он похоронен на кладбище. Чьи же это останки? И как события тех далеких дней связаны с происходящим в ее доме? Успеет ли Ардашев разгадать загадку до того, как убийца нанесет новый удар?

Качество: SATRip
Формат: AVI

Видео: XviD, 720x400, ~ 1700 Кбит/с, 0.235 bit/pixel
Аудио: МР3, 48,0 КГц, 2 ch, 192 Кбит/с
скриншот  скриншот  скриншот  скриншот  скриншот  

Общее
Полное имя : D:\Адвокатъ.Ардашевъ.S03.Тайна.Персидского.Обоза.XviD.2019.SATRip.7turza™\01.Адвокатъ.Ардашевъ.S03.Тайна.Персидского.Обоза.7turza™.avi
Формат : AVI
Формат/Информация : Audio Video Interleave
Размер файла : 614 Мбайт
Продолжительность : 45 м. 12 с.
Общий поток : 1899 Кбит/сек
Название фильма : S03 E01 # from 7turza #
Программа кодирования : Lavf58.29.100

Видео
Идентификатор : 0
Формат : MPEG-4 Visual
Профиль формата : Advanced Simple@L5
Настройки формата : BVOP1
Параметр BVOP формата : 1
Параметр QPel формата : Нет
Параметр GMC формата : Без точки перехода
Параметр матрицы формата : Default (H.263)
Идентификатор кодека : XVID
Идентификатор кодека/Подсказка : XviD
Продолжительность : 45 м. 12 с.
Битрейт : 1694 Кбит/сек
Ширина : 720 пикселей
Высота : 400 пикселей
Соотношение сторон : 16:9
Частота кадров : 25,000 кадров/сек
Цветовое пространство : YUV
Субдискретизация насыщенности : 4:2:0
Битовая глубина : 8 бит
Тип развёртки : Прогрессивная
Бит/(Пиксели*Кадры) : 0.235
Размер потока : 548 Мбайт (89%)
Библиотека кодирования : XviD 67

Аудио
Идентификатор : 1
Формат : MPEG Audio
Версия формата : Version 1
Профиль формата : Layer 3
Настройки формата : Joint stereo / MS Stereo
Идентификатор кодека : 55
Идентификатор кодека/Подсказка : MP3
Продолжительность : 45 м. 12 с.
Вид битрейта : Постоянный
Битрейт : 192 Кбит/сек
Каналы : 2 канала
Частота : 48,0 КГц
Размер потока : 62,1 Мбайт (10%)
Выравнивание : Соединение по промежуткам
Продолжительность промежутка : 24 мс. (0,60 видеокадр)
Библиотека кодирования : LAME3.100UUUUUU

Внимание! Раздача ведётся путём добавления новых серий; при каждом добавлении создаётся новый торрент.
Чтобы начать докачку новой серии, пользователям необходимо сделать следующее:
1. Остановить скачивание;
2. Удалить старый торрент у себя из клиента (старые серии удалять не надо);
3. Скачать новый торрент и запустить его у себя в клиенте вместо старого, при этом указать клиенту путь в старую папку куда и должно происходить скачивание новых серий. Ваш клиент при этом должен произвести хеширование (проверку) старой папки и будет докачивать только те серии, которых у вас ещё нет. Старые серии при этом не удаляются, а продолжают раздаваться! Eсли вы уже удалили старые серии, то предотвратить повторную закачку старых серий можно, отжав галочку в соответствующих местах при запуске нового торрента.
pb.wtf



Скачать Адвокатъ Ардашевъ. Тайна персидского обоза через торрент https://c.radikal.ru/c38/2004/54/4b1c69692573.jpg Скачать, смотреть онлайн Адвокатъ Ардашевъ. Тайна персидского обоза бесплантно в хорошем качестве Описание: По одноименному роману Ивана Любенко. 1909 год, Ставрополь. Пожилую домовладелицу Загорскую приводят в ужас мистические явления, ... 10 10 7
Торрент: Зарегистрирован [2020-04-11 11:25] · скачан: 80 раз
Статус: √ проверено
Размер: 2.35 GB
Как cкачать? Как скачать Адвокатъ Ардашевъ. Тайна персидского обоза через торрент | UTorrent

% Раздел Тема Автор DL S | L
Наши сериалы [ 2.29 GB ] Адвокатъ Ардашевъ. Тайна персидского обоза / Сезон: 3 / Серии: 1-4 из 4 [2020 WEB-DLRip-AVC] bober100 Скачать
1 | 0
Наши сериалы [ 2.3 GB ] Адвокатъ Ардашевъ. Тайна персидского обоза / Сезон: 3 / Серии: 1-4 из 4 [2020 WEB-DLRip] bober100 Скачать
1 | 0

28-11-2019 20:33  

Отключить всю рекламу на сайте

    Дорогой пользователь! Огромная просьба, поблагодарите релизера, оцените раздачу и оставьте свои комментарий, если Вы скачали Адвокатъ Ардашевъ. Тайна персидского обоза через торрент бесплатно!
    Комментировать посты могут только пользователи прошедшие не сложную регистрацию
    Показать сообщения:    

    Адвокатъ Ардашевъ. Тайна персидского обоза через торрент
    Скачать бесплатно Адвокатъ Ардашевъ. Тайна персидского обоза
    Адвокатъ Ардашевъ. Тайна персидского обоза скачать торрент
    Адвокатъ Ардашевъ. Тайна персидского обоза смотреть онлайн
    Cкачать фильм Адвокатъ Ардашевъ. Тайна персидского обоза бесплатно
    Адвокатъ Ардашевъ. Тайна персидского обоза скачать торрент в хорошем качестве
    Адвокатъ Ардашевъ. Тайна персидского обоза смотреть онлайн бесплатно в хорошем качестве


    Вы не можете начинать темы
    Вы не можете отвечать на сообщения
    Вы не можете редактировать свои сообщения
    Вы не можете удалять свои сообщения
    Вы не можете голосовать в опросах
    Вы не можете прикреплять файлы к сообщениям
    Вы можете скачивать файлы