Ссылка на приватное зеркало нашего сайта всего за 1$. Внимание количество ограничено!!!

2 сезон

iTunes

1 сезон

1

iTunes

iTunes

iTunes

1 сезон

RePack

30

ИГРА 18+

pack

ВАЖНО

!!Акция!!

Alien_RageХит недели

RePack

MK11
pack

Забери бонус

RePack

jed

!!Акция!!

Alien_Rage

RePack

fifa19

RePack

Assassins Creed: Odyssey

RePack

NEED FOR SPEED™ PAYBACK

4 сезон

9 сезон

Бесстыжие 9 сезон

Все сериалы

все сериалы на PB.wtf

RePack

FAR CRY 5
  

Игрушка / Серии: 1-2 из 2 (Карен Захаров) [2020, Детектив, WEB-DLRip] pb.wtf

Игрушка через торрент pb.wtf

Размер: 1.14 GB | Добавлен: 6 мес. назад | Торрент скачан:18 раз
Скачать  

11-04-2020 10:53 Игрушка Скачать торрент  

Игрушка
Год выпуска: 2020
Страна: Россия
Жанр: Детектив
Продолжительность: ~ 00:45:00
Субтитры: отсутствуют

Режиссер: Карен Захаров



В ролях: Мария Машкова, Иван Стебунов, Анатолий Руденко, Юлия Галкина, Ирина Баринова, Александр Наумов, Александр Печенин, Антон Ансимов, Владимир Фоков, Оксана Мосенкова, Людмила Урваева, Алла Гришина, Марк Щербаков, Мария Тохтарова

Описание: Алиса Савельева – психотерапевт, чей уникальный метод основан на психодраме. Расставляя игрушки вместе с клиентами – как детьми, так и взрослыми – Алиса помогает им сделать нестандартные выводы и найти путь к излечению. Но однажды ее собственная жизнь рушится: кто-то убивает клиенток одну за другой, а муж и лучшая подруга что-то скрывают. С каждым днем таинственный враг все больше втягивает Алису в свою жестокую игру. А между тем разгадка всех тайн кроется в игрушке, которую Алиса потеряла давным-давно…

Качество: WEB-DLRip
Формат: AVI

Видео: XviD, ~ 1600 Кбит/с, 720x400, 25 кадр/с
Аудио: 48.0 kHz, AC3 Dolby Digital, 2/0 (L,R) ch, ~ 192 kbps
скриншот  скриншот  скриншот  скриншот  скриншот  

General
Complete name: H:\fiiles x\Игрушка.2020.WEB-DLRip.Files-x\01. Игрушка.2020.WEB-DLRip.Files-x.avi
Format: AVI
Format/Info: Audio Video Interleave
File size: 580 MiB
Duration: 45mn 1s
Overall bit rate: 1 802 Kbps
Writing application: VirtualDubMod 1.5.10.3 | www.virtualdub-fr.org || (build 2550/release)
Writing library: VirtualDubMod build 2550/release

Video
ID: 0
Format: MPEG-4 Visual
Format profile: Advanced Simple@L5
Format settings, BVOP: 1
Format settings, QPel: No
Format settings, GMC: No warppoints
Format settings, Matrix: Custom
Codec ID: XVID
Codec ID/Hint: XviD
Duration: 45mn 1s
Bit rate: 1 600 Kbps
Width: 720 pixels
Height: 400 pixels
Display aspect ratio: 16:9
Frame rate: 25.000 fps
Color space: YUV
Chroma subsampling: 4:2:0
Bit depth: 8 bits
Scan type: Progressive
Compression mode: Lossy
Bits/(Pixel*Frame): 0.222
Stream size: 515 MiB (89%)
Writing library: XviD 73

Audio
ID: 1
Format: AC-3
Format/Info: Audio Coding 3
Mode extension: CM (complete main)
Codec ID: 2000
Duration: 45mn 1s
Bit rate mode: Constant
Bit rate: 192 Kbps
Channel(s): 2 channels
Channel positions: Front: L R
Sampling rate: 48.0 KHz
Bit depth: 16 bits
Compression mode: Lossy
Stream size: 61.8 MiB (11%)
Alignment: Split accross interleaves
Interleave, duration: 40 ms (1.00 video frame)
Interleave, preload duration: 500 ms

pb.wtf



Скачать Игрушка через торрент https://i111.fastpic.ru/big/2020/0410/0c/70fcfe33eac46a65edff9558c439bf0c.jpg Скачать фильм Игрушка через торрент бесплантно в хорошем качестве Описание: Алиса Савельева – психотерапевт, чей уникальный метод основан на психодраме. Расставляя игрушки вместе с клиентами – как детьми, ... 10 10 3
Торрент: Зарегистрирован [2020-04-11 10:53] · скачан: 18 раз
Статус: √ проверено
Размер: 1.14 GB
Как cкачать? Как скачать Игрушка через торрент | qTorrent

% Раздел Тема Автор DL S | L
Наши сериалы [ 3.37 GB ] Игрушка / Серии: 1-2 из 2 [2020 WEB-DL 1080p] bober100 Скачать
2 | 0
Наши сериалы [ 1.14 GB ] Игрушка / Серии: 1-2 из 2 [2020 WEB-DLRip-AVC] bober100 Скачать
1 | 0
Наши сериалы [ 1.07 GB ] Игрушка / Серии: 1-2 из 2 [2020 SATRip-AVC] aleksan55 Скачать
1 | 0

28-11-2019 20:33  

Отключить всю рекламу на сайте

    Дорогой пользователь! Огромная просьба, поблагодарите релизера, оцените раздачу и оставьте свои комментарий, если Вы скачали Игрушка через торрент бесплатно! Внесите свою лепту в развитие PiratBit!
    Комментировать посты могут только пользователи прошедшие не сложную регистрацию
    Показать сообщения:    

    Игрушка через торрент
    Скачать бесплатно Игрушка
    Игрушка скачать торрент
    Игрушка смотреть онлайн
    Cкачать фильм Игрушка бесплатно
    Игрушка скачать торрент в хорошем качестве
    Игрушка смотреть онлайн бесплатно в хорошем качестве


    Вы не можете начинать темы
    Вы не можете отвечать на сообщения
    Вы не можете редактировать свои сообщения
    Вы не можете удалять свои сообщения
    Вы не можете голосовать в опросах
    Вы не можете прикреплять файлы к сообщениям
    Вы можете скачивать файлы