Всегда рабочее зеркало без VPN и Proxy просто перед .vidak.icu напиши любое слово или цифру, Пример http://zy42.vidak.icu

MVO

Лицензия

1 сезон

1

1 сезон

iTunes

1 сезон

13

1 сезон

Deluxe

pack

Рекомендуем

Repack

30

ВАЖНО

RePack

MK11

RePack

jed

RePack

fifa19

RePack

RDR2

RePack

NEED FOR SPEED™ PAYBACK

Кинопоиск HD

6 сезон

 Острые козырьки 6 сезон

Все сериалы

все сериалы на PB.wtf

RePack

FAR CRY 5
  
Magnet ссылка

Люди в черном: Интернэшнл / Men in Black International (Ф. Гэри Грей) [2019 г., фантастика, BDRip 720p / 60 FPS, Дубляж] от R.G. HD-Films pb.wtf

Люди в черном: Интернэшнл через торрент pb.wtf

Размер: 4.09 GB | Добавлен: 2 года 2 мес. назад | Торрент скачан:173 раза
Смотреть онлайн Люди в черном: Интернэшнл | Скачать    Ребята, помогите собрать деньги на оплату серверов!!!

11-04-2020 12:10 Люди в черном: Интернэшнл Скачать торрент  

Люди в черном: Интернэшнл / Men in Black International
Год выпуска: : 2019
Страна: : США
Жанр: : фантастика
Продолжительность: 01:54:49
Перевод: Дубляж
Субтитры: Russian, English

Режиссер: Ф. Гэри Грей

Бюджет: $110 000 000
Премьера в мире: 11 июня 2019

rating

В ролях: Тесса Томпсон, Крис Хемсворт, Кумэйл Нанджиани, Ребекка Фергюсон (II), Эмма Томпсон, Лиам Нисон, Рейф Сполл, Кайван Новак, Спенсер Уайлдинг

Сюжет фильма: Люди в черном, тайная организация на страже покоя и безопасности Земли, уже не раз защищали нас от нападения отбросов Вселенной. На этот раз самая большая опасность для мирового сообщества, которой агентам предстоит противостоять - шпион в их рядах.

Качество видео: BDRip 720p / 60 FPS
Формат: MKV
Видео кодек: H.264
Аудио кодек: AC3
Видео : x264, 1280 x 640 ( 2,000 ), 4721 kbps, 60,000 fps, ( 0.096 bpp)
Аудио : Русский, AC-3, 48.0 KHz, 6 ch, 384 Kbps
Релиз от:

скриншот   скриншот   скриншот   скриншот   скриншот   скриншот  Автор рипа: slaventi-69
x264 [info]: frame I:2817 Avg QP:13.38 size:113788
x264 [info]: frame P:94807 Avg QP:16.51 size: 24610
x264 [info]: frame B:315352 Avg QP:21.71 size: 4464
x264 [info]: consecutive B-frames: 1.7% 1.8% 9.0% 17.5% 60.5% 9.5%


Общее
Уникальный идентификатор : 78696447503226956473522355995328693963 (0x3B34626D0A8A758F0CB89067FB20C6CB)
Полное имя : F:\Men.in.Black.International.(2019).BDRip.720p.(60 Fps).mkv
Формат : Matroska
Версия формата : Version 4
Размер файла : 4,09 Гбайт
Продолжительность : 1 ч. 54 м.
Общий поток : 5106 Кбит/сек
Название фильма : Люди в черном: Интернэшнл / Men in Black International (2019) BDRip 720p (60 Fps)
Дата кодирования : UTC 2020-04-05 15:04:57
Программа кодирования : mkvmerge v42.0.0 ('Overtime') 64-bit
Библиотека кодирования : libebml v1.3.10 + libmatroska v1.5.2

Видео
Идентификатор : 1
Формат : AVC
Формат/Информация : Advanced Video Codec
Профиль формата : [email protected]
Настройки формата : CABAC / 9 Ref Frames
Параметр CABAC формата : Да
Параметр RefFrames формата : 9 кадров
Идентификатор кодека : V_MPEG4/ISO/AVC
Продолжительность : 1 ч. 54 м.
Битрейт : 4721 Кбит/сек
Ширина : 1280 пикселей
Высота : 640 пикселей
Соотношение сторон : 2,000
Режим частоты кадров : Постоянный
Частота кадров : 60,000 кадров/сек
Цветовое пространство : YUV
Субдискретизация насыщенности : 4:2:0
Битовая глубина : 8 бит
Тип развёртки : Прогрессивная
Бит/(Пиксели*Кадры) : 0.096
Размер потока : 3,78 Гбайт (92%)
Заголовок : slaventi-69 ( R.G. HD-Films | 60 fps )
Библиотека кодирования : x264 core 130 r2273 b3065e6
Настройки программы : cabac=1 / ref=9 / deblock=1:-1:-1 / analyse=0x3:0x133 / me=umh / subme=9 / psy=1 / psy_rd=1.00:0.00 / mixed_ref=1 / me_range=26 / chroma_me=1 / trellis=2 / 8x8dct=1 / cqm=0 / deadzone=21,11 / fast_pskip=0 / chroma_qp_offset=-2 / threads=3 / lookahead_threads=1 / sliced_threads=0 / nr=0 / decimate=1 / interlaced=0 / bluray_compat=0 / constrained_intra=0 / bframes=5 / b_pyramid=2 / b_adapt=2 / b_bias=0 / direct=3 / weightb=1 / open_gop=0 / weightp=2 / keyint=250 / keyint_min=25 / scenecut=40 / intra_refresh=0 / rc_lookahead=50 / rc=crf / mbtree=1 / crf=15.0 / qcomp=0.60 / qpmin=0 / qpmax=69 / qpstep=4 / ip_ratio=1.40 / aq=1:1.00
Язык : English
Default : Да
Forced : Нет

Аудио
Идентификатор : 2
Формат : AC-3
Формат/Информация : Audio Coding 3
Коммерческое название : Dolby Digital
Идентификатор кодека : A_AC3
Продолжительность : 1 ч. 54 м.
Вид битрейта : Постоянный
Битрейт : 384 Кбит/сек
Каналы : 6 каналов
Channel layout : L R C LFE Ls Rs
Частота : 48,0 КГц
Частота кадров : 31,250 кадров/сек (1536 SPF)
Битовая глубина : 16 бит
Метод сжатия : С потерями
Размер потока : 315 Мбайт (8%)
Заголовок : Dub [Blu-ray EUR]
Язык : Russian
ServiceKind/String : Complete Main
Default : Да
Forced : Нет

Текст #1
Идентификатор : 3
Формат : UTF-8
Идентификатор кодека : S_TEXT/UTF8
Идентификатор кодека/Информация : UTF-8 Plain Text
Продолжительность : 1 ч. 13 м.
Битрейт : 0 бит/сек
ElementCount : 14
Размер потока : 496 байт (0%)
Заголовок : Forced
Язык : Russian
Default : Да
Forced : Нет

Текст #2
Идентификатор : 4
Формат : UTF-8
Идентификатор кодека : S_TEXT/UTF8
Идентификатор кодека/Информация : UTF-8 Plain Text
Продолжительность : 1 ч. 53 м.
Битрейт : 86 бит/сек
ElementCount : 1441
Размер потока : 72,1 Кбайт (0%)
Заголовок : iTunes
Язык : Russian
Default : Нет
Forced : Нет

Текст #3
Идентификатор : 5
Формат : UTF-8
Идентификатор кодека : S_TEXT/UTF8
Идентификатор кодека/Информация : UTF-8 Plain Text
Продолжительность : 1 ч. 43 м.
Битрейт : 68 бит/сек
ElementCount : 1706
Размер потока : 51,7 Кбайт (0%)
Заголовок : Full
Язык : English
Default : Нет
Forced : Нет

Текст #4
Идентификатор : 6
Формат : UTF-8
Идентификатор кодека : S_TEXT/UTF8
Идентификатор кодека/Информация : UTF-8 Plain Text
Продолжительность : 1 ч. 53 м.
Битрейт : 68 бит/сек
ElementCount : 2014
Размер потока : 56,6 Кбайт (0%)
Заголовок : SDH
Язык : English
Default : Нет
Forced : Нет

Текст #5
Идентификатор : 7
Формат : UTF-8
Идентификатор кодека : S_TEXT/UTF8
Идентификатор кодека/Информация : UTF-8 Plain Text
Продолжительность : 1 ч. 44 м.
Битрейт : 103 бит/сек
ElementCount : 1778
Размер потока : 79,8 Кбайт (0%)
Заголовок : SDH-Colored
Язык : English
Default : Нет
Forced : Нет

Меню
00:00:00.000 : en:Chapter 01
00:07:58.686 : en:Chapter 02
00:15:33.098 : en:Chapter 03
00:20:09.583 : en:Chapter 04
00:27:17.135 : en:Chapter 05
00:34:29.650 : en:Chapter 06
00:46:10.267 : en:Chapter 07
00:50:32.028 : en:Chapter 08
00:59:01.204 : en:Chapter 09
01:03:12.914 : en:Chapter 10
01:10:51.413 : en:Chapter 11
01:14:35.929 : en:Chapter 12
01:25:31.209 : en:Chapter 13
01:28:49.574 : en:Chapter 14
01:34:29.246 : en:Chapter 15
01:43:31.830 : en:Chapter 16

Просьба к переливающим на другие сайты, в оформлении указывайте пожалуйста авторство группы R.G. HD-Films pb.wtf



Скачать Люди в черном: Интернэшнл через торрент https://a.radikal.ru/a18/1908/0e/6006b99c5103.png Скачать, смотреть онлайн Люди в черном: Интернэшнл бесплантно в хорошем качестве В ролях: Тесса Томпсон, Крис Хемсворт, Кумэйл Нанджиани, Ребекка Фергюсон (II), Эмма Томпсон, Лиам Нисон, Рейф Сполл, Кайван Новак, ... 7.8 10 8
Торрент: Зарегистрирован [2020-04-11 12:10] · скачан: 173 раз
Статус: √ проверено
Размер: 4.09 GB
Как cкачать? Как скачать Люди в черном: Интернэшнл через торрент | UTorrent

28-11-2019 20:33  

Отключить всю рекламу на сайте

12-04-2020 12:54 Люди в черном: Интернэшнл Скачать торрент  

О да! Эта часть в тему! Не достающая из трилогии! Спасибки! Я вам в личку ссылок накидал! pb.wtf



    Дорогой пользователь! Огромная просьба, поблагодарите релизера, оцените раздачу и оставьте свои комментарий, если Вы скачали Люди в черном: Интернэшнл через торрент бесплатно!
    Комментировать посты могут только пользователи прошедшие не сложную регистрацию
    Показать сообщения:    

    Люди в черном: Интернэшнл через торрент
    Скачать бесплатно Люди в черном: Интернэшнл
    Люди в черном: Интернэшнл скачать торрент
    Люди в черном: Интернэшнл смотреть онлайн
    Cкачать фильм Люди в черном: Интернэшнл бесплатно
    Люди в черном: Интернэшнл скачать торрент в хорошем качестве
    Люди в черном: Интернэшнл смотреть онлайн бесплатно в хорошем качестве


    Вы не можете начинать темы
    Вы не можете отвечать на сообщения
    Вы не можете редактировать свои сообщения
    Вы не можете удалять свои сообщения
    Вы не можете голосовать в опросах
    Вы не можете прикреплять файлы к сообщениям
    Вы можете скачивать файлы