Ссылка на приватное зеркало нашего сайта всего за 1$. Внимание количество ограничено!!!

2 сезон

iTunes

1 сезон

1

2 сезон

2 сезон

iTunes

1 сезон

RePack

30

Новинка

ВАЖНО

ИГРА 18+

pack

RePack

MK11
pack

Забери бонус

RePack

jed

!!Акция!!

Alien_Rage

RePack

fifa19

RePack

Assassins Creed: Odyssey

RePack

NEED FOR SPEED™ PAYBACK

4 сезон

9 сезон

Бесстыжие 9 сезон

Все сериалы

все сериалы на PB.wtf

RePack

FAR CRY 5
  

Пол: Секретный материальчик / Пол / Paul (Грег Моттола) [2011, фантастика, комедия, приключения, WEB-DL 1080p] [Open Matte] [Театральная версия / Theatrical Cut] 2x[Dub] + 2x[AVO] (Сербин, Пучков) + [Ukr] (Line) pb.wtf

Пол: Секретный материальчик через торрент pb.wtf

Раздают: 1 [ 0 KB/s ]
Размер: 5.57 GB | Добавлен: 7 мес. назад | Торрент скачан:197 раз
Скачать  

11-04-2020 17:31 Пол: Секретный материальчик Скачать торрент  

Пол: Секретный материальчик / Пол / Paul«Кто готов к тесному контакту?»
Год выпуска: 2011
Страна: США, Великобритания
Жанр: фантастика, комедия, приключения
Продолжительность: 01:43:39
Перевод 1: Профессиональный (полное дублирование) Blu-Ray CEE
Перевод 2: Профессиональный (полное дублирование) Megogo
Перевод 3: Авторский (одноголосый закадровый) - Юрий Сербин
Перевод 4: Авторский (одноголосый закадровый) - Дмитрий "Гоблин" Пучков
Перевод 5: Профессиональный (полное дублирование) LeDoyen (Line)
Субтитры: Russian (Forced, Full (Notabenoid)), English (Full (SDH), Commentary)

Режиссер: Грег Моттола / Greg Mottola
В ролях: Саймон Пегг, Ник Фрост, Сет Роген, Джейсон Бейтман, Кристен Уиг, Билл Хейдер, Блайт Даннер, Джо Ло Трульо, Джон Кэрролл Линч, Джейн Линч
Описание: Два английских гика отправляются на одно из самых значимых фанатских событий в области фантастики — конвент ComicCon в Америке. По пути, неподалёку от известной Зоны 51, они встречают сбежавшего инопланетянина по имени Пол, который просит помочь ему добраться домой.
rating

Тип релиза: WEB-DL 1080p
Контейнер: MKV
Видео: MPEG4 Video (H264) 1920x1080 23.976fps ~4000Kbps
Аудио# 1: Russian: 48 kHz, DTS, 3/2 (L,C,R,l,r) + LFE ch, ~768.00 kbps avg |Дубляж - Blu-ray CEE|
Аудио# 2: Russian: 48 kHz, AAC, 2.0 (L,R) ch, ~198.00 kbps avg |Дубляж - Megogo|
Аудио# 3: Russian: 48 kHz, AC3, 3/2 (L,C,R,l,r) + LFE ch, ~640.00 kbps avg |Авторский, одноголосый - Юрий Сербин|
Аудио# 4: Russian: 48 kHz, AC3, 2.0 (L,R) ch, ~192.00 kbps avg |Авторский, одноголосый - Дмитрий "Гоблин" Пучков|
Аудио# 5: Ukrainian: 48 kHz, AC3, 2.0 (L,R) ch, ~192.00 kbps avg |Дубляж - LeDoyen (Line)|
Аудио# 6: English: 48 kHz, DTS, 3/2 (L,C,R,l,r) + LFE ch, ~1509.00 kbps avg |Оригинал - BluRay|
Субтитры: SoftSub (SRT)

Цитата:

- Исходная вебка c онлайн-кинотеатре Megogo, обработке не подвергалась. За видеоряд спасибо SOFCJ
- Видеоряд локализован;
- Фильм переведён и озвучен Дмитрием "Гоблином" Пучковым в 2020 году для онлайн-кинотеатра Wink, за дорожку спасибо TBiL
- Дорожка №3 получена наложением выделенного голоса на центр декодированного DTS. Работа со звуком - maxwell_kennedy. В промежутке 07:20 - 07:24 нет перевода
- В переводах Сербина и Пучкова имеется ненормативная лексика
- Присутствуют главы как на Blu-Ray.
- Open Matte версия фильма, имеет большее наполнение кадра, по сравнению с Widescreen.

Код:

General
Unique ID                      : 181349151523157025942839200705738328228 (0x886E937D4E50DC499D0A44449D6248A4)
Complete name                  : E:\Фильмы и Сериалы\Open Matte\Paul.2011.Open.Matte.1080p.WEB-DL.3xRus.Ukr.Eng.mkv
Format                         : Matroska
Format version                 : Version 4
File size                      : 5.57 GiB
Duration                       : 1 h 44 min
Overall bit rate               : 7 640 kb/s
Encoded date                   : UTC 2020-04-11 12:37:29
Writing application            : mkvmerge v7.8.0 ('River Man') 64bit built on Mar 27 2015 16:31:37
Writing library                : libebml v1.3.1 + libmatroska v1.4.2

Video
ID                             : 1
Format                         : AVC
Format/Info                    : Advanced Video Codec
Format profile                 : High@L4
Format settings                : CABAC / 3 Ref Frames
Format settings, CABAC         : Yes
Format settings, Reference fra : 3 frames
Codec ID                       : V_MPEG4/ISO/AVC
Duration                       : 1 h 43 min
Bit rate                       : 4 000 kb/s
Width                          : 1 920 pixels
Height                         : 1 080 pixels
Display aspect ratio           : 16:9
Frame rate mode                : Constant
Frame rate                     : 23.976 (24000/1001) FPS
Color space                    : YUV
Chroma subsampling             : 4:2:0
Bit depth                      : 8 bits
Scan type                      : Progressive
Bits/(Pixel*Frame)             : 0.080
Stream size                    : 2.90 GiB (52%)
Writing library                : x264 core 142 r2389 956c8d8
Encoding settings              : cabac=1 / ref=3 / deblock=1:0:0 / analyse=0x3:0x133 / me=umh / subme=7 / psy=1 / psy_rd=1.00:0.00 / mixed_ref=1 / me_range=32 / chroma_me=1 / trellis=2 / 8x8dct=1 / cqm=0 / deadzone=21,11 / fast_pskip=1 / chroma_qp_offset=-2 / threads=6 / lookahead_threads=1 / sliced_threads=0 / nr=0 / decimate=1 / interlaced=0 / bluray_compat=0 / constrained_intra=0 / bframes=0 / weightp=0 / keyint=71 / keyint_min=24 / scenecut=40 / intra_refresh=0 / rc_lookahead=50 / rc=2pass / mbtree=0 / bitrate=4000 / ratetol=1.0 / qcomp=0.20 / qpmin=10 / qpmax=51 / qpstep=4 / cplxblur=20.0 / qblur=0.5 / vbv_maxrate=5000 / vbv_bufsize=5000 / nal_hrd=none / filler=0 / ip_ratio=1.40 / aq=1:1.00
Language                       : English
Default                        : Yes
Forced                         : No
Color range                    : Limited
Color primaries                : BT.709
Transfer characteristics       : BT.709
Matrix coefficients            : BT.709

Audio #1
ID                             : 2
Format                         : DTS
Format/Info                    : Digital Theater Systems
Codec ID                       : A_DTS
Duration                       : 1 h 43 min
Bit rate mode                  : Constant
Bit rate                       : 768 kb/s
Channel(s)                     : 6 channels
Channel layout                 : C L R Ls Rs LFE
Sampling rate                  : 48.0 kHz
Frame rate                     : 93.750 FPS (512 SPF)
Bit depth                      : 24 bits
Compression mode               : Lossy
Stream size                    : 569 MiB (10%)
Title                          : Dub - Blu-Ray CEE | DTS 5.1 @ 768 kbps
Language                       : Russian
Default                        : Yes
Forced                         : No

Audio #2
ID                             : 3
Format                         : AAC LC
Format/Info                    : Advanced Audio Codec Low Complexity
Codec ID                       : A_AAC-2
Duration                       : 1 h 43 min
Bit rate                       : 198 kb/s
Channel(s)                     : 2 channels
Channel layout                 : L R
Sampling rate                  : 48.0 kHz
Frame rate                     : 46.875 FPS (1024 SPF)
Compression mode               : Lossy
Stream size                    : 147 MiB (3%)
Title                          : Dub - Megogo | AAC 2.0 @ 198 kbps
Language                       : Russian
Default                        : No
Forced                         : No

Audio #3
ID                             : 4
Format                         : AC-3
Format/Info                    : Audio Coding 3
Commercial name                : Dolby Digital
Codec ID                       : A_AC3
Duration                       : 1 h 43 min
Bit rate mode                  : Constant
Bit rate                       : 640 kb/s
Channel(s)                     : 6 channels
Channel layout                 : L R C LFE Ls Rs
Sampling rate                  : 48.0 kHz
Frame rate                     : 31.250 FPS (1536 SPF)
Compression mode               : Lossy
Stream size                    : 475 MiB (8%)
Title                          : AVO - Юрий Сербин | AC3 5.1 @ 640 kbps
Language                       : Russian
Service kind                   : Complete Main
Default                        : No
Forced                         : No

Audio #4
ID                             : 5
Format                         : AC-3
Format/Info                    : Audio Coding 3
Commercial name                : Dolby Digital
Codec ID                       : A_AC3
Duration                       : 1 h 44 min
Bit rate mode                  : Constant
Bit rate                       : 192 kb/s
Channel(s)                     : 2 channels
Channel layout                 : L R
Sampling rate                  : 48.0 kHz
Frame rate                     : 31.250 FPS (1536 SPF)
Compression mode               : Lossy
Stream size                    : 143 MiB (3%)
Title                          : AVO - Дмитрий "Гоблин" Пучков | AC3 2.0 @ 192 kbps
Language                       : Russian
Service kind                   : Complete Main
Default                        : No
Forced                         : No

Audio #5
ID                             : 6
Format                         : AC-3
Format/Info                    : Audio Coding 3
Commercial name                : Dolby Digital
Codec ID                       : A_AC3
Duration                       : 1 h 43 min
Bit rate mode                  : Constant
Bit rate                       : 192 kb/s
Channel(s)                     : 2 channels
Channel layout                 : L R
Sampling rate                  : 48.0 kHz
Frame rate                     : 31.250 FPS (1536 SPF)
Compression mode               : Lossy
Stream size                    : 142 MiB (2%)
Title                          : Dub - LeDoyen (Line) | AC3 2.0 @ 192 kbps
Language                       : Ukrainian
Service kind                   : Complete Main
Default                        : No
Forced                         : No

Audio #6
ID                             : 7
Format                         : DTS
Format/Info                    : Digital Theater Systems
Codec ID                       : A_DTS
Duration                       : 1 h 43 min
Bit rate mode                  : Constant
Bit rate                       : 1 509 kb/s
Channel(s)                     : 6 channels
Channel layout                 : C L R Ls Rs LFE
Sampling rate                  : 48.0 kHz
Frame rate                     : 93.750 FPS (512 SPF)
Bit depth                      : 24 bits
Compression mode               : Lossy
Stream size                    : 1.09 GiB (20%)
Title                          : Original - Blu-Ray CEE | DTS 5.1 @ 1509 kbps
Language                       : English
Default                        : No
Forced                         : No

Audio #7
ID                             : 8
Format                         : AC-3
Format/Info                    : Audio Coding 3
Commercial name                : Dolby Digital
Codec ID                       : A_AC3
Duration                       : 1 h 43 min
Bit rate mode                  : Constant
Bit rate                       : 192 kb/s
Channel(s)                     : 2 channels
Channel layout                 : L R
Sampling rate                  : 48.0 kHz
Frame rate                     : 31.250 FPS (1536 SPF)
Compression mode               : Lossy
Stream size                    : 142 MiB (2%)
Title                          : Original - Commentary | AC3 2.0 @ 192 kbps
Language                       : English
Service kind                   : Complete Main
Default                        : No
Forced                         : No

Text #1
ID                             : 9
Format                         : UTF-8
Codec ID                       : S_TEXT/UTF8
Codec ID/Info                  : UTF-8 Plain Text
Duration                       : 1 h 43 min
Bit rate                       : 2 b/s
Count of elements              : 42
Stream size                    : 1.67 KiB (0%)
Title                          : Forced - Blu-Ray/R5
Language                       : Russian
Default                        : No
Forced                         : No

Text #2
ID                             : 10
Format                         : UTF-8
Codec ID                       : S_TEXT/UTF8
Codec ID/Info                  : UTF-8 Plain Text
Duration                       : 1 h 36 min
Bit rate                       : 104 b/s
Count of elements              : 1637
Stream size                    : 73.8 KiB (0%)
Title                          : Full - Notabenoid
Language                       : Russian
Default                        : No
Forced                         : No

Text #3
ID                             : 11
Format                         : UTF-8
Codec ID                       : S_TEXT/UTF8
Codec ID/Info                  : UTF-8 Plain Text
Duration                       : 1 h 37 min
Bit rate                       : 77 b/s
Count of elements              : 1818
Stream size                    : 55.7 KiB (0%)
Title                          : Full - SDH
Language                       : English
Default                        : No
Forced                         : No

Text #4
ID                             : 12
Format                         : UTF-8
Codec ID                       : S_TEXT/UTF8
Codec ID/Info                  : UTF-8 Plain Text
Duration                       : 1 h 43 min
Bit rate                       : 152 b/s
Count of elements              : 2246
Stream size                    : 115 KiB (0%)
Title                          : Commentary
Language                       : English
Default                        : No
Forced                         : No

Menu
00:00:00.000                   : en:00:00:00.000
00:05:25.324                   : en:00:05:25.324
00:11:20.763                   : en:00:11:20.763
00:16:52.636                   : en:00:16:52.636
00:23:53.890                   : en:00:23:53.890
00:28:58.444                   : en:00:28:58.444
00:31:24.590                   : en:00:31:24.590
00:36:50.333                   : en:00:36:50.333
00:40:54.618                   : en:00:40:54.618
00:43:57.426                   : en:00:43:57.426
00:51:13.320                   : en:00:51:13.320
00:56:30.386                   : en:00:56:30.386
01:00:42.346                   : en:01:00:42.346
01:07:01.141                   : en:01:07:01.141
01:11:41.755                   : en:01:11:41.755
01:18:28.411                   : en:01:18:28.411
01:21:06.486                   : en:01:21:06.486
01:26:53.124                   : en:01:26:53.124
01:30:45.940                   : en:01:30:45.940
01:35:29.640                   : en:01:35:29.640


скриншот  скриншот  скриншот  

pb.wtf



Скачать Пол: Секретный материальчик через торрент https://i111.fastpic.ru/big/2020/0411/fd/5011eb32bc50f48543cc61b3367fc5fd.jpg Скачать фильм Пол: Секретный материальчик через торрент бесплантно в хорошем качестве Описание: Два английских гика отправляются на одно из самых значимых фанатских событий в области фантастики — конвент ComicCon в Америке. ... 9.8 10 9
Info! Золотая раздача, скачанное не засчитывается.
Торрент: Зарегистрирован [2020-04-11 17:31] · скачан: 197 раз
Статус: √ проверено
Размер: 5.57 GB
Как cкачать? Как скачать Пол: Секретный материальчик через торрент | qTorrent

% Раздел Тема Автор DL S | L
Фильмы с авторской озвучкой [ 1.48 GB ] Пол: Секретный материальчик / Пол / Paul [2011 WEBRip] [Театральная версия / Theatrical Cut] [Open Matte] [AVO] killermax2013 Скачать
1 | 0
Фильмы (HD 720p, 1080p) (48-60 fps) [ 3.27 GB ] Пол: Секретный материальчик / Paul [2011 BDRip 720p 60fps от еnvy / NNNB] DUB еnvy Скачать
1 | 0
Фильмы 2011 [ 1.37 GB ] Пол: Секретный материальчик / Paul [2011 HDRip лицензия] Lil Badun Скачать
1 | 0
Фильмы (Blu-ray, BD-Remux, HDDVD) [ 17.97 GB ] Пол: Секретный материальчик / Paul [2011 BD-Remux ] от R.G. HD-Films Seedtank Скачать
1 | 0
Фильмы 2011 [ 2.05 GB ] Пол: Секретный материальчик / Paul [2011 BDRip лицензия] SD Скачать
1 | 0
Фильмы [HD 720p, 1080p] (Хороший звук DUB, MVO) [ 6.51 GB ] Пол: Секретный материальчик / Paul [EXTENDED CUT] [2011 BDRip 720p лицензия] Ke$h@ Скачать
1 | 0
Фильмы (DVD фильмы) [ 6.61 GB ] Пол: Секретный материальчик / Paul [2011 DVD9] R5 «Юниверсал Пикчерс Рус» voovaz Скачать
1 | 0

28-11-2019 20:33  

Отключить всю рекламу на сайте

    Дорогой пользователь! Огромная просьба, поблагодарите релизера, оцените раздачу и оставьте свои комментарий, если Вы скачали Пол: Секретный материальчик через торрент бесплатно! Внесите свою лепту в развитие PiratBit!
    Комментировать посты могут только пользователи прошедшие не сложную регистрацию
    Показать сообщения:    

    Пол: Секретный материальчик через торрент
    Скачать бесплатно Пол: Секретный материальчик
    Пол: Секретный материальчик скачать торрент
    Пол: Секретный материальчик смотреть онлайн
    Cкачать фильм Пол: Секретный материальчик бесплатно
    Пол: Секретный материальчик скачать торрент в хорошем качестве
    Пол: Секретный материальчик смотреть онлайн бесплатно в хорошем качестве


    Вы не можете начинать темы
    Вы не можете отвечать на сообщения
    Вы не можете редактировать свои сообщения
    Вы не можете удалять свои сообщения
    Вы не можете голосовать в опросах
    Вы не можете прикреплять файлы к сообщениям
    Вы можете скачивать файлы