Всегда рабочее зеркало без VPN и Proxy просто перед .vidak.icu напиши любое слово или цифру, Пример http://h6cl.vidak.icu

MVO

Лицензия

1 сезон

1

1 сезон

iTunes

1 сезон

13

1 сезон

Deluxe

pack

Рекомендуем

Пиратка

30

ВАЖНО

RePack

MK11

RePack

jed

RePack

fifa19

RePack

RDR2

RePack

NEED FOR SPEED™ PAYBACK

Кинопоиск HD

6 сезон

 Острые козырьки 6 сезон

Все сериалы

все сериалы на PB.wtf

RePack

FAR CRY 5

Anonymous, нам критически не хватает 2100 руб. на оплату серверов и переферии за МАЙ, помоги нам пожалуйста, вся надежда только на тебя. В благодарность мы отключим тебе всю рекламу на сайте!

×
  
Magnet ссылка

Адвокатъ Ардашевъ. Тайна персидского обоза / Сезон: 3 / Серии: 1-4 из 4 (Анарио Мамедов) [2020, Детектив, WEB-DLRip] pb.wtf

Адвокатъ Ардашевъ. Тайна персидского обоза через торрент pb.wtf

Размер: 2.3 GB | Добавлен: 2 года 2 мес. назад | Торрент скачан:26 раз
Смотреть онлайн Адвокатъ Ардашевъ. Тайна персидского обоза | Скачать    Ребята, помогите собрать деньги на оплату серверов!!!

11-04-2020 19:11 Адвокатъ Ардашевъ. Тайна персидского обоза Скачать торрент  

Адвокатъ Ардашевъ: Тайна персидского обоза
Год выпуска: 2020
Страна: Россия
Жанр: Детектив
Продолжительность: ~ 00:45:00
Субтитры: отсутствуют

Режиссер: Анарио Мамедов

В ролях: Антон Хабаров, Янина Мелехова, Валерий Новиков, Артём Мельничук, Алексей Кондрахов, Денис Беспалый, Максим Литовченко, Глеб Подгородинский, Дмитрий Блохин, Кристина Борейко, Леонид Ардо, Дмитрий Грачёв (II), Максим Конев

Описание: По одноименному роману Ивана Любенко. 1909 год, Ставрополь. Пожилую домовладелицу Загорскую приводят в ужас мистические явления, происходящие в доме. Самовозгорание свечей, страшные звуки в дымоходе, стук в окна. Ардашев тщательно обследует все комнаты, но объяснения не находит. В это же время при проведении земляных работ на центральной площади обнаруживают скелет мужчины в форме поручика. Он пролежал в земле более восьмидесяти лет. В его карманах рабочие находят часы с дарственной надписью на имя Игнатьева. Ту же фамилию носила в девичестве госпожа Загорская. Она рассказывает Ардашеву, что в далеком 1828-м году погиб ее отец, полковник Игнатьев. Но он похоронен на кладбище. Чьи же это останки? И как события тех далеких дней связаны с происходящим в ее доме? Успеет ли Ардашев разгадать загадку до того, как убийца нанесет новый удар?

Качество: WEB-DLRip
Формат: AVI

Видео: XviD, ~ 1600 Кбит/с, 720x400
Аудио: 48.0 kHz, AC3 Dolby Digital, 2/0 (L,R) ch, ~ 192 kbps
скриншот  скриншот  скриншот  скриншот  

General
Complete name: H:\fiiles x\Адвокатъ.Ардашевъ.S03.Тайна.Персидского.Обоз..WEB-DLRip.Files-x\01. Адвокатъ.Ардашевъ.S03.Тайна.Персидского.Обоз..WEB-DLRip.Files-x.avi
Format: AVI
Format/Info: Audio Video Interleave
File size: 589 MiB
Duration: 45mn 41s
Overall bit rate: 1 802 Kbps
Writing application: VirtualDubMod 1.5.10.3 | www.virtualdub-fr.org || (build 2550/release)
Writing library: VirtualDubMod build 2550/release

Video
ID: 0
Format: MPEG-4 Visual
Format profile: Advanced Simple@L5
Format settings, BVOP: 1
Format settings, QPel: No
Format settings, GMC: No warppoints
Format settings, Matrix: Custom
Codec ID: XVID
Codec ID/Hint: XviD
Duration: 45mn 41s
Bit rate: 1 600 Kbps
Width: 720 pixels
Height: 400 pixels
Display aspect ratio: 16:9
Frame rate: 25.000 fps
Color space: YUV
Chroma subsampling: 4:2:0
Bit depth: 8 bits
Scan type: Progressive
Compression mode: Lossy
Bits/(Pixel*Frame): 0.222
Stream size: 523 MiB (89%)
Writing library: XviD 73

Audio
ID: 1
Format: AC-3
Format/Info: Audio Coding 3
Mode extension: CM (complete main)
Codec ID: 2000
Duration: 45mn 41s
Bit rate mode: Constant
Bit rate: 192 Kbps
Channel(s): 2 channels
Channel positions: Front: L R
Sampling rate: 48.0 KHz
Bit depth: 16 bits
Compression mode: Lossy
Stream size: 62.7 MiB (11%)
Alignment: Split accross interleaves
Interleave, duration: 40 ms (1.00 video frame)
Interleave, preload duration: 500 ms

Внимание! Раздача ведётся путём добавления новых серий; при каждом добавлении создаётся новый торрент.
Чтобы начать докачку новой серии, пользователям необходимо сделать следующее:
1. Остановить скачивание;
2. Удалить старый торрент у себя из клиента (старые серии удалять не надо);
3. Скачать новый торрент и запустить его у себя в клиенте вместо старого, при этом указать клиенту путь в старую папку куда и должно происходить скачивание новых серий. Ваш клиент при этом должен произвести хеширование (проверку) старой папки и будет докачивать только те серии, которых у вас ещё нет. Старые серии при этом не удаляются, а продолжают раздаваться! Eсли вы уже удалили старые серии, то предотвратить повторную закачку старых серий можно, отжав галочку в соответствующих местах при запуске нового торрента.
pb.wtf



Скачать Адвокатъ Ардашевъ. Тайна персидского обоза через торрент https://c.radikal.ru/c38/2004/54/4b1c69692573.jpg Скачать, смотреть онлайн Адвокатъ Ардашевъ. Тайна персидского обоза бесплантно в хорошем качестве Описание: По одноименному роману Ивана Любенко. 1909 год, Ставрополь. Пожилую домовладелицу Загорскую приводят в ужас мистические явления, ... 10 10 5
Торрент: Зарегистрирован [2020-04-12 00:05] · скачан: 26 раз
Статус: √ проверено
Размер: 2.3 GB
Как cкачать? Как скачать Адвокатъ Ардашевъ. Тайна персидского обоза через торрент | UTorrent

% Раздел Тема Автор DL S | L
Наши сериалы [ 2.29 GB ] Адвокатъ Ардашевъ. Тайна персидского обоза / Сезон: 3 / Серии: 1-4 из 4 [2020 WEB-DLRip-AVC] bober100 Скачать
1 | 0
Наши сериалы [ 2.35 GB ] Адвокатъ Ардашевъ. Тайна персидского обоза / Сезон: 3 / Серии: 1-4 из 4 [2020 SATRip] bober100 Скачать
1 | 0

28-11-2019 20:33  

Отключить всю рекламу на сайте

    Дорогой пользователь! Огромная просьба, поблагодарите релизера, оцените раздачу и оставьте свои комментарий, если Вы скачали Адвокатъ Ардашевъ. Тайна персидского обоза через торрент бесплатно!
    Комментировать посты могут только пользователи прошедшие не сложную регистрацию
    Показать сообщения:    

    Адвокатъ Ардашевъ. Тайна персидского обоза через торрент
    Скачать бесплатно Адвокатъ Ардашевъ. Тайна персидского обоза
    Адвокатъ Ардашевъ. Тайна персидского обоза скачать торрент
    Адвокатъ Ардашевъ. Тайна персидского обоза смотреть онлайн
    Cкачать фильм Адвокатъ Ардашевъ. Тайна персидского обоза бесплатно
    Адвокатъ Ардашевъ. Тайна персидского обоза скачать торрент в хорошем качестве
    Адвокатъ Ардашевъ. Тайна персидского обоза смотреть онлайн бесплатно в хорошем качестве


    Вы не можете начинать темы
    Вы не можете отвечать на сообщения
    Вы не можете редактировать свои сообщения
    Вы не можете удалять свои сообщения
    Вы не можете голосовать в опросах
    Вы не можете прикреплять файлы к сообщениям
    Вы можете скачивать файлы