Достать ножи: Стеклянная луковица

MVO

Добыча

Дубляж

Уэнсдэй

1 сезон

Тор

Дубляж

13 клиническая

1 сезон

Жестокая ночь

MVO

Одни из нас

1 сезон

Deluxe

pack

Рекомендуем

30

Пиратка

ВАЖНО

ВАЖНО

Ghostwire

Пиратка

jed

RePack

nioh2

RePack

RDR2

RePack

NEED FOR SPEED™ PAYBACK

RePack

скачать торрент

Кинопоиск HD

Острые козырьки 6 сезон

6 сезон

FAR CRY 6

RePack

скачать торрент

Лицензия

скачать торрент

MVO

1

1 сезон

скачать торрент

1 сезон

скачать торрент

Лицензия

  

Отверженные / Les misérables (Ладж Ли) [2019, Драма, криминал, BDRip 1080p] MVO [iTunes]

Отверженные через торрент pb.wtf

Размер: 10.55 GB | Добавлен: 2 года 9 мес. назад | Торрент скачан:214 раз
Смотреть онлайн | Скачать | Поддержите нас   

12-04-2020 02:29 Отверженные Скачать торрент  

Отверженные | Les misérables
Год выпуска: 2019
Страна: Франция
Студия: Srab Films, Rectangle Productions, Lyly Films
Жанр: Драма, криминал
Продолжительность: 01:44:03
Перевод: Профессиональный многоголосый | iTunes
Субтитры: Французские

Режиссер: Ладж Ли

rating

В ролях: Дамиен Боннар, Алексис Маненти, Джибрил Зонга, Иса Перица, Аль-Хассан Ли, Стив Тьеншо, Альмами Кануте, Низар Бен Фатма, Рэймонд Лопес, Лучиано Лопес

Описание: В парижском пригороде Монфермей, воспетом в знаменитом романе Виктора Гюго как место полицейского произвола и обиталище отбросов общества, за два века ничего не изменилось. Новичок Стефан по прозвищу Пенто заступает на службу в местный отдел полиции. С пушками в кобуре и дубинками в руках его новые соратники творят на улицах района то, что они называют справедливостью, пока однажды не попадают на камеру дрона одного парнишки.

Качество: BDRip 1080p
Формат: MKV

Видео: MPEG-4 AVC, 1920x800, 13.5 Mbit/s, 23.976 fps
Аудио: 48 kHz, AC3, 5.1, 384 Kbps | iTunes | RUS |
Аудио: 48 kHz, AC3, 5.1, 640 Kbps | Оригинал | FRE |
скриншот  скриншот  скриншот  скриншот  скриншот  

General
Unique ID : 225609670520329097082813023437839402310 (0xA9BAD78E9CCC928E3A6EB20FF8240546)
Complete name : E:Video111Les.Miserables.2019.BDRip.1080p.seleZen.mkv
Format : Matroska
Format version : Version 4
File size : 10.6 GiB
Duration : 1 h 44 min
Overall bit rate : 14.5 Mb/s
Movie name : Les Miserables 2019 from селезень
Encoded date : UTC 2020-04-11 20:21:09
Writing application : mkvmerge v40.0.0 ('Old Town Road + Pony') 64-bit
Writing library : libebml v1.3.9 + libmatroska v1.5.2

Video
ID : 1
Format : AVC
Format/Info : Advanced Video Codec
Format profile : [email protected]
Format settings : CABAC / 5 Ref Frames
Format settings, CABAC : Yes
Format settings, Reference : 5 frames
Codec ID : V_MPEG4/ISO/AVC
Duration : 1 h 44 min
Bit rate : 13.5 Mb/s
Width : 1 920 pixels
Height : 800 pixels
Display aspect ratio : 2.40:1
Frame rate mode : Constant
Frame rate : 23.976 (24000/1001) FPS
Color space : YUV
Chroma subsampling : 4:2:0
Bit depth : 8 bits
Scan type : Progressive
Bits/(Pixel*Frame) : 0.367
Stream size : 9.80 GiB (93%)
Title : Encoded by seleZen
Writing library : x264 core 142 r2431+42 c69a006 tMod [[email protected] X86_64]
Encoding settings : cabac=1 / ref=5 / deblock=1:-2:-2 / analyse=0x3:0x133 / me=umh / subme=10 / psy=1 / fade_compensate=0.00 / psy_rd=1.00:0.00 / mixed_ref=1 / me_range=32 / chroma_me=1 / trellis=2 / 8x8dct=1 / cqm=0 / deadzone=21,11 / fast_pskip=0 / chroma_qp_offset=-2 / threads=24 / lookahead_threads=4 / sliced_threads=0 / nr=0 / decimate=0 / interlaced=0 / bluray_compat=0 / constrained_intra=0 / fgo=0 / bframes=8 / b_pyramid=2 / b_adapt=2 / b_bias=0 / direct=3 / weightb=1 / open_gop=0 / weightp=2 / keyint=240 / keyint_min=23 / scenecut=40 / intra_refresh=0 / rc_lookahead=50 / rc=2pass / mbtree=0 / bitrate=13500 / ratetol=1.0 / qcomp=0.60 / qpmin=0:0:0 / qpmax=51:51:51 / qpstep=4 / cplxblur=20.0 / qblur=0.5 / vbv_maxrate=50000 / vbv_bufsize=62500 / nal_hrd=none / filler=0 / ip_ratio=1.40 / pb_ratio=1.30 / aq=3:0.80 / aq-sensitivity=10.00 / aq-factor=1.00:1.00:1.00 / aq2=0 / aq3=0
Language : English
Default : Yes
Forced : No

Audio #1
ID : 2
Format : AC-3
Format/Info : Audio Coding 3
Commercial name : Dolby Digital
Codec ID : A_AC3
Duration : 1 h 44 min
Bit rate mode : Constant
Bit rate : 384 kb/s
Channel(s) : 6 channels
Channel layout : L R C LFE Ls Rs
Sampling rate : 48.0 kHz
Frame rate : 31.250 FPS (1536 SPF)
Compression mode : Lossy
Stream size : 286 MiB (3%)
Title : iTunes
Language : Russian
Service kind : Complete Main
Default : Yes
Forced : Yes

Audio #2
ID : 3
Format : AC-3
Format/Info : Audio Coding 3
Commercial name : Dolby Digital
Codec ID : A_AC3
Duration : 1 h 44 min
Bit rate mode : Constant
Bit rate : 640 kb/s
Channel(s) : 6 channels
Channel layout : L R C LFE Ls Rs
Sampling rate : 48.0 kHz
Frame rate : 31.250 FPS (1536 SPF)
Compression mode : Lossy
Stream size : 476 MiB (4%)
Title : Original
Language : French
Service kind : Complete Main
Default : No
Forced : No

Text
ID : 4
Format : UTF-8
Codec ID : S_TEXT/UTF8
Codec ID/Info : UTF-8 Plain Text
Duration : 1 h 43 min
Bit rate : 60 b/s
Count of elements : 1678
Stream size : 45.9 KiB (0%)
Title : SDH
Language : French
Default : No
Forced : No

Menu
00:00:00.000 : en:00:00:00.000
00:10:58.283 : en:00:10:58.283
00:19:20.451 : en:00:19:20.451
00:28:16.111 : en:00:28:16.111
00:36:39.030 : en:00:36:39.030
00:44:28.583 : en:00:44:28.583
00:54:05.576 : en:00:54:05.576
01:02:52.978 : en:01:02:52.978
01:09:33.544 : en:01:09:33.544
01:17:09.416 : en:01:17:09.416
01:26:20.509 : en:01:26:20.509
01:34:20.363 : en:01:34:20.363




Скачать Отверженные через торрент https://i111.fastpic.ru/big/2020/0321/67/abdb89e441a8821de2b8d499a1f15567.jpg Скачать, смотреть онлайн Отверженные бесплантно в хорошем качестве Описание: В парижском пригороде Монфермей, воспетом в знаменитом романе Виктора Гюго как место полицейского произвола и обиталище отбросов ... 8.7 10 7
Торрент: Зарегистрирован [2020-04-12 02:29] · скачан: 214 раз
Статус: √ проверено
Размер: 10.55 GB
Как cкачать? Как скачать Отверженные через торрент | UTorrent

% Раздел Тема Автор DL S | L
Фильмы 2019-2020 [DVDrip, WEB-DLRip, HDrip] (DUB, MVO) [ 1.42 GB ] Отверженные / Les misérables | Лицензия | BDRip Twi7ter Скачать
1 | 0
Фильмы 2019-2020 [DVDrip, WEB-DLRip, HDrip] (DUB, MVO) [ 1.41 GB ] Отверженные / Les misérables | iTunes | BDRip bober100 Скачать
1 | 0
Фильмы (Blu-ray, BD-Remux, HDDVD) [ 29.48 GB ] Отверженные / Les misérables | iTunes | BD Remux 1080p bober100 Скачать
2 | 0
Фильмы (WEB-DL 720p, 1080p) [ 3.66 GB ] Отверженные / Les misérables | iTunes | 1080p bober100 Скачать
1 | 0
Фильмы 2019-2020 [DVDrip, WEB-DLRip, HDrip] (DUB, MVO) [ 746 MB ] Отверженные / Les misérables | iTunes | DLRip bober100 Скачать
1 | 0

28-11-2019 20:33  


Отключить вcю реклaмy на сайте, в т.ч. и в плеере онлайн просмотра!

15-04-2020 13:42 Отверженные Скачать торрент  

Очень жаль, что парнишка в конце не довел дело до конца, по крайней мере, этого не показали - додумывай сам.

Фильм про то как:
-"дерьмо" начинается с малого. Вначале ты одну черту перешел, потом другую и так постепенно у тебя слетают тормоза.
-общаясь с дерьмовыми людьми ты сам становишься дерьмом.



15-04-2020 19:34 Отверженные Скачать торрент  

PiratMan писал(а):

Очень жаль, что парнишка в конце не довел дело до конца, по крайней мере, этого не показали - додумывай сам.

Фильм про то как:
-"дерьмо" начинается с малого. Вначале ты одну черту перешел, потом другую и так постепенно у тебя слетают тормоза.
-общаясь с дерьмовыми людьми ты сам становишься дерьмом.

Малолетние черномазые АУЕшники (те же самые что у нас воруют колеса, магнитолы, бухают на детских площадках, отжимают деньги у слабых) регулярно нарушают закон, за что и платят. Мелкого жалко было только один раз, и то не долго. В конце копам надо было сразу стрелять на поражение, жаль толерантность у них...



    Дорогой пользователь! Огромная просьба, поблагодарите релизера, оцените раздачу и оставьте свои комментарий, если Вы скачали Отверженные через торрент бесплатно!!
    Комментировать посты могут только пользователи прошедшие не сложную регистрацию
    Показать сообщения:    


    Отверженные через торрент
    Скачать бесплатно Отверженные
    Отверженные скачать торрент
    Отверженные смотреть онлайн
    Cкачать фильм Отверженные бесплатно
    Отверженные скачать торрент в хорошем качестве
    Отверженные смотреть онлайн бесплатно в хорошем качестве
    Вы не можете начинать темы
    Вы не можете отвечать на сообщения
    Вы не можете редактировать свои сообщения
    Вы не можете удалять свои сообщения
    Вы не можете голосовать в опросах
    Вы не можете прикреплять файлы к сообщениям
    Вы можете скачивать файлы
    Отверженные / Les misérables [2019, Драма, криминал, BDRip 1080p] MVO [iTunes] смотреть онлайн, скачать торрент picoco.icu