Ссылка на приватное зеркало нашего сайта всего за 1$. Внимание количество ограничено!!!

2 сезон

iTunes

1 сезон

1

2 сезон

2 сезон

iTunes

1 сезон

RePack

30

Ultimate

ВАЖНО

ИГРА 18+

pack

RePack

MK11
pack

Забери бонус

RePack

jed

!!Акция!!

Alien_Rage

RePack

fifa19

RePack

Assassins Creed: Odyssey

RePack

NEED FOR SPEED™ PAYBACK

4 сезон

9 сезон

Бесстыжие 9 сезон

Все сериалы

все сериалы на PB.wtf

RePack

FAR CRY 5
  

Потерянный муж / The Lost Husband (Вики Уайт) [2020, Драма, WEB-DL 1080p] DUB [iTunes] pb.wtf

Потерянный муж через торрент pb.wtf

Раздают: 1 [ 0 KB/s ]
Размер: 4.56 GB | Добавлен: 1 мес. назад | Торрент скачан:32 раза
Скачать  

12-04-2020 08:24 Потерянный муж Скачать торрент  

Потерянный муж | The Lost Husband
Год выпуска: 2020
Страна: США
Выпущено: Six Foot Pictures
Жанр: Драма
Продолжительность: 01:50:08
Перевод: Дублированный | iTunes
Субтитры: английские

Режиссер: Вики Уайт

rating

В ролях: Джош Дюамель, Лесли Бибб, Шэрон Лоуренс, Карли Поуп, Джорджия Кинг, Нора Данн, Исайя Уитлок мл., Эрисен Ф. Гардиола, Кэлли Хоуп Хаверда, Эшлин Рейнн Холмс

Описание: Либби с детьми возвращается в Техас, на козью ферму своей тети. Она попытается начать жизнь заново после трагической смерти мужа.

Качество: WEB-DL 1080p
Формат: MKV

Видео: MPEG-4 AVC, 5161 Kb/s, 1920x1036, 23.976 fps
Аудио #1 Russian: 48 kHz, AC3 Dolby Digital, 3/2 (L, C, R, l, r) + LFE ch, ~384 Kbps | iTunes
Аудио #2 English: 48 kHz, AC3 Dolby Digital, 3/2 (L, C, R, l, r) + LFE ch, ~384 Kbps | Original
скриншот  скриншот  скриншот  скриншот  

Complete name: Poteryannyiy.muzh.2020.1080p.WEB-DL.ELEKTRI4KA.UNIONGANG.mkv
Format: Matroska
Format version: Version 4 / Version 2
File size: 4.56 GiB
Duration: 1 h 50 min
Overall bit rate: 5 931 kb/s
Movie name: .ELEKTRI4KA.UNIONGANG.
Encoded date: UTC 2020-10-24 08:35:35
Writing application: mkvmerge v8.3.0 ('Over the Horizon') 64bit
Writing library: libebml v1.3.1 + libmatroska v1.4.2

Video
ID: 1
Format: AVC
Format/Info: Advanced Video Codec
Format profile: High@L4
Format settings, CABAC: Yes
Format settings, Reference frames: 4 frames
Codec ID: V_MPEG4/ISO/AVC
Duration: 1 h 50 min
Bit rate: 5 161 kb/s
Width: 1 920 pixels
Height: 1 036 pixels
Display aspect ratio: 1.85:1
Frame rate mode: Constant
Frame rate: 23.976 FPS
Color space: YUV
Chroma subsampling: 4:2:0
Bit depth: 8 bits
Scan type: Progressive
Bits/(Pixel*Frame): 0.108
Stream size: 3.97 GiB (87%)
Title: .ELEKTRI4KA.UNIONGANG.
Language: English
Default: Yes
Forced: No
Color range: Limited
Color primaries: BT.709
Transfer characteristics: BT.709
Matrix coefficients: BT.709

Audio #1
ID: 2
Format: AC-3
Format/Info: Audio Coding 3
Mode extension: CM (complete main)
Format settings, Endianness: Big
Codec ID: A_AC3
Duration: 1 h 50 min
Bit rate mode: Constant
Bit rate: 384 kb/s
Channel(s): 6 channels
Channel positions: Front: L C R, Side: L R, LFE
Sampling rate: 48.0 kHz
Frame rate: 31.250 FPS (1536 spf)
Bit depth: 16 bits
Compression mode: Lossy
Delay relative to video: -42 ms
Stream size: 302 MiB (6%)
Title: iTunes
Language: Russian
Default: Yes
Forced: Yes

Audio #2
ID: 3
Format: AC-3
Format/Info: Audio Coding 3
Mode extension: CM (complete main)
Format settings, Endianness: Big
Codec ID: A_AC3
Duration: 1 h 50 min
Bit rate mode: Constant
Bit rate: 384 kb/s
Channel(s): 6 channels
Channel positions: Front: L C R, Side: L R, LFE
Sampling rate: 48.0 kHz
Frame rate: 31.250 FPS (1536 spf)
Bit depth: 16 bits
Compression mode: Lossy
Delay relative to video: -42 ms
Stream size: 303 MiB (6%)
Title: Original
Language: English
Default: No
Forced: No

Text
ID: 4
Format: UTF-8
Codec ID: S_TEXT/UTF8
Codec ID/Info: UTF-8 Plain Text
Duration: 1 h 42 min
Bit rate: 61 b/s
Count of elements: 1735
Stream size: 46.5 KiB (0%)
Language: English
Default: Yes
Forced: No

Menu
00:00:00.000: en:Chapter 01
00:10:06.000: en:Chapter 02
00:20:26.000: en:Chapter 03
00:30:59.000: en:Chapter 04
00:40:43.000: en:Chapter 05
00:50:57.000: en:Chapter 06
00:58:13.000: en:Chapter 07
01:07:37.000: en:Chapter 08
01:19:00.000: en:Chapter 09
01:30:14.000: en:Chapter 10
01:37:30.000: en:Chapter 11
01:45:55.000: en:Chapter 12

pb.wtf



Скачать Потерянный муж через торрент https://d.radikal.ru/d30/2010/67/982cae665386.png Скачать фильм Потерянный муж через торрент бесплантно в хорошем качестве Описание: Либби с детьми возвращается в Техас, на козью ферму своей тети. Она попытается начать жизнь заново после трагической смерти ... 10 10 8
Торрент: Зарегистрирован [2020-10-25 13:19] · скачан: 32 раз
Статус: √ проверено
Размер: 4.56 GB
Как cкачать? Как скачать Потерянный муж через торрент | qTorrent

% Раздел Тема Автор DL S | L
Фильмы 2019-2020 [DVDrip, WEB-DLRip, HDrip] (DUB, MVO) [ 2.06 GB ] Потерянный муж / The Lost Husband [2020 WEB-DLRip] bober100 Скачать
2 | 0
Фильмы 2019-2020 [DVDrip, WEB-DLRip, HDrip] (DUB, MVO) [ 1.46 GB ] Потерянный муж / The Lost Husband [2020 WEB-DLRip] bober100 Скачать
4 | 0

28-11-2019 20:33  

Отключить всю рекламу на сайте

    Дорогой пользователь! Огромная просьба, поблагодарите релизера, оцените раздачу и оставьте свои комментарий, если Вы скачали Потерянный муж через торрент бесплатно! Внесите свою лепту в развитие PiratBit!
    Комментировать посты могут только пользователи прошедшие не сложную регистрацию
    Показать сообщения:    

    Потерянный муж через торрент
    Скачать бесплатно Потерянный муж
    Потерянный муж скачать торрент
    Потерянный муж смотреть онлайн
    Cкачать фильм Потерянный муж бесплатно
    Потерянный муж скачать торрент в хорошем качестве
    Потерянный муж смотреть онлайн бесплатно в хорошем качестве


    Вы не можете начинать темы
    Вы не можете отвечать на сообщения
    Вы не можете редактировать свои сообщения
    Вы не можете удалять свои сообщения
    Вы не можете голосовать в опросах
    Вы не можете прикреплять файлы к сообщениям
    Вы можете скачивать файлы