Всегда рабочее зеркало просто перед .vidak.icu напиши любое слово или цифру, Пример http://z98.vidak.icu

>

7.4

iTunes

7.4

2 сезон

9.4

1 сезон

1

7.4

2 сезон

7.2

iTunes

6.0

MVO

13

6.1

iTunes

8.3

Пиратка

30

ULTIMATE

pack

9.9

Лицензия

ВАЖНО

ИГРА 18+

pack

7.3

RePack

MK11

7.7

RePack

jed

7.8

RePack

fifa19

8.5

RePack

RDR2

RePack

NEED FOR SPEED™ PAYBACK

1 сезон

9 сезон

Бесстыжие 9 сезон

Все сериалы

все сериалы на PB.wtf

RePack

FAR CRY 5

Anonymous, доброй ночи, мы катастрофически не успеваем собрать деньги на оплату серверов, помогите нам пожалуйста 5,10,15р., для нас важна любая помощь . В качестве благодарности мы отключим Вам всю рекламу на сайте (укажите свой ник в строку Ваше имя)!

×
  
Magnet ссылка

Джентльмены / The Gentlemen (Гай Ричи) [2019, боевик, комедия, криминал, BDRip-AVC] AVO [Есарев, Яроцкий, Пучков] - ExKinoRay pb.wtf

Джентльмены через торрент pb.wtf

Раздают: 24 [ 0 KB/s ]
Размер: 2.22 GB | Добавлен: 1 год 9 мес. назад | Торрент скачан:959 раз
Смотреть онлайн Джентльмены | Скачать    Ребята, помогите собрать деньги на оплату серверов!!!

12-04-2020 20:41 Джентльмены Скачать торрент  

Название: Джентльмены
Оригинальное название: The Gentlemen
Год выхода: 2019
Жанр: Боевик, комедия, криминал
Режиссер: Гай Ричи
В ролях: Мэттью МакКонахи, Чарли Ханнэм, Мишель Докери, Джереми Стронг, Лайн Рени, Колин Фаррелл, Генри Голдинг, Том Ву, Чиди Аджуфо, Хью Грант

О фильме: Талантливый выпускник Оксфорда, применив свой уникальный ум и невиданную дерзость, придумал нелегальную схему обогащения с использованием поместья обедневшей английской аристократии. Однако когда он решает продать свой бизнес влиятельному клану миллиардеров из США, на его пути встают не менее обаятельные, но жесткие джентльмены. Намечается обмен любезностями, который точно не обойдется без перестрелок и парочки несчастных случаев.

rating

Страна: США
Студия: Miramax Films
Продолжительность: 01:53:40
Перевод: Авторский (закадровый) от Есарева, Яроцкого и Пучкова

Присутствует ненормативная лексика!

Формат: MKV
Качество: BDRip-AVC
Видео: MPEG-4 AVC, 1024x428 (2.40:1), 23.976 fps, 1450 Kbps, 0.131 bit/pixel
Аудио #01: 48 kHz, AC3, 5.1, 448 Kbps | Дмитрий «Goblin» Пучков | RUS | Монтаж 5.1 karasidi ® |
Аудио #02: 48 kHz, AC3, 5.1, 448 Kbps | Д. Есарев | RUS |
Аудио #03: 48 kHz, AC3, 5.1, 448 Kbps | М. Яроцкий | RUS |
Субтитры: Русские (Forced, Full), английские
x264 [info]: frame I:1637 Avg QP:14.92 size: 70341
x264 [info]: frame P:34362 Avg QP:18.39 size: 15982
x264 [info]: frame B:127519 Avg QP:20.03 size: 4465
-------------------------------------------------------
General
Unique ID : 181131732741684170621460405684804752688 (0x8844B3EA7A499C75913C592D872F9530)
Complete name : F:\The.Gentlemen.2020.AVO.BDRip.AVC.ExKinoRay.mkv
Format : Matroska
Format version : Version 2
File size : 2.22 GiB
Duration : 1 h 53 min
Overall bit rate : 2 790 kb/s
Movie name : The Gentlemen 2019 from ExKinoRay
Encoded date : UTC 2020-04-12 19:48:06
Writing application : mkvmerge v5.6.0 ('Kenya Kane') built on May 27 2012 16:44:04
Writing library : libebml v1.2.3 + libmatroska v1.3.0

Video
ID : 1
Format : AVC
Format/Info : Advanced Video Codec
Format profile : High@L4.1
Format settings, CABAC : Yes
Format settings, ReFrames : 12 frames
Codec ID : V_MPEG4/ISO/AVC
Duration : 1 h 53 min
Bit rate : 1 450 kb/s
Width : 1 024 pixels
Height : 428 pixels
Display aspect ratio : 2.40:1
Frame rate mode : Constant
Frame rate : 23.976 (23976/1000) FPS
Color space : YUV
Chroma subsampling : 4:2:0
Bit depth : 8 bits
Scan type : Progressive
Bits/(Pixel*Frame) : 0.138
Stream size : 1.10 GiB (50%)
Title : Enigma
Writing library : x264 core 152 r2851 ba24899
Encoding settings : cabac=1 / ref=12 / deblock=1:-2:-2 / analyse=0x3:0x113 / me=umh / subme=10 / psy=1 / psy_rd=1.03:0.05 / mixed_ref=1 / me_range=32 / chroma_me=1 / trellis=2 / 8x8dct=1 / cqm=0 / deadzone=21,11 / fast_pskip=0 / chroma_qp_offset=-3 / threads=12 / lookahead_threads=3 / sliced_threads=0 / nr=0 / decimate=1 / interlaced=0 / bluray_compat=0 / constrained_intra=0 / bframes=10 / b_pyramid=2 / b_adapt=2 / b_bias=0 / direct=3 / weightb=1 / open_gop=0 / weightp=2 / keyint=240 / keyint_min=23 / scenecut=40 / intra_refresh=0 / rc=2pass / mbtree=0 / bitrate=1450 / ratetol=1.0 / qcomp=0.60 / qpmin=0 / qpmax=51 / qpstep=4 / cplxblur=20.0 / qblur=0.5 / ip_ratio=1.40 / pb_ratio=1.30 / aq=1:1.00
Language : English
Default : Yes
Forced : No
Color range : Limited
Color primaries : BT.709
Transfer characteristics : BT.709
Matrix coefficients : BT.709

Audio #1
ID : 2
Format : AC-3
Format/Info : Audio Coding 3
Mode extension : CM (complete main)
Format settings, Endianness : Big
Codec ID : A_AC3
Duration : 1 h 53 min
Bit rate mode : Constant
Bit rate : 448 kb/s
Channel(s) : 6 channels
Channel positions : Front: L C R, Side: L R, LFE
Sampling rate : 48.0 kHz
Frame rate : 31.250 FPS (1536 spf)
Compression mode : Lossy
Stream size : 364 MiB (16%)
Title : AVO (Goblin)
Language : Russian
Default : Yes
Forced : No

Audio #2
ID : 3
Format : AC-3
Format/Info : Audio Coding 3
Mode extension : CM (complete main)
Format settings, Endianness : Big
Codec ID : A_AC3
Duration : 1 h 53 min
Bit rate mode : Constant
Bit rate : 448 kb/s
Channel(s) : 6 channels
Channel positions : Front: L C R, Side: L R, LFE
Sampling rate : 48.0 kHz
Frame rate : 31.250 FPS (1536 spf)
Compression mode : Lossy
Delay relative to video : 24 s 0 ms
Stream size : 364 MiB (16%)
Title : AVO (Esarev)
Language : Russian
Default : No
Forced : No

Audio #3
ID : 4
Format : AC-3
Format/Info : Audio Coding 3
Mode extension : CM (complete main)
Format settings, Endianness : Big
Codec ID : A_AC3
Duration : 1 h 53 min
Bit rate mode : Constant
Bit rate : 448 kb/s
Channel(s) : 6 channels
Channel positions : Front: L C R, Side: L R, LFE
Sampling rate : 48.0 kHz
Frame rate : 31.250 FPS (1536 spf)
Compression mode : Lossy
Delay relative to video : 24 s 0 ms
Stream size : 364 MiB (16%)
Title : AVO (Yarotskiy)
Language : Russian
Default : No
Forced : No

Text #1
ID : 5
Format : UTF-8
Codec ID : S_TEXT/UTF8
Codec ID/Info : UTF-8 Plain Text
Title : Forced
Language : Russian
Default : Yes
Forced : No

Text #2
ID : 6
Format : UTF-8
Codec ID : S_TEXT/UTF8
Codec ID/Info : UTF-8 Plain Text
Title : Full
Language : Russian
Default : No
Forced : No

Text #3
ID : 7
Format : UTF-8
Codec ID : S_TEXT/UTF8
Codec ID/Info : UTF-8 Plain Text
Title : Full
Language : English
Default : No
Forced : No

Menu
00:00:00.000 : en:Chapter 1
00:04:27.100 : en:Chapter 2
00:08:16.413 : en:Chapter 3
00:13:42.780 : en:Chapter 4
00:19:21.494 : en:Chapter 5
00:24:49.988 : en:Chapter 6
00:30:23.530 : en:Chapter 7
00:37:17.944 : en:Chapter 8
00:41:55.430 : en:Chapter 9
00:48:38.874 : en:Chapter 10
00:56:51.199 : en:Chapter 11
01:03:34.102 : en:Chapter 12
01:08:45.038 : en:Chapter 13
01:14:18.204 : en:Chapter 14
01:19:05.991 : en:Chapter 15
01:24:30.023 : en:Chapter 16
01:29:24.776 : en:Chapter 17
01:34:21.114 : en:Chapter 18
01:40:11.130 : en:Chapter 19
01:48:37.511 : en:Chapter 20



Релиз от:

Автор релиза: pb.wtf



Скачать Джентльмены через торрент https://a.radikal.ru/a08/2004/e1/e93f00c81492.jpg Скачать, смотреть онлайн Джентльмены бесплантно в хорошем качестве О фильме: Талантливый выпускник Оксфорда, применив свой уникальный ум и невиданную дерзость, придумал нелегальную схему обогащения с ... 9.4 10 16
Info! Золотая раздача, скачанное не засчитывается.
Торрент: Зарегистрирован [2020-04-12 20:41] · скачан: 959 раз
Статус: √ проверено
Размер: 2.22 GB
Как cкачать? Как скачать Джентльмены через торрент | UTorrent

% Раздел Тема Автор DL S | L
Фильмы 2019-2020 [DVDrip, WEB-DLRip, HDrip] (DUB, MVO) [ 2.27 GB ] Джентльмены / The Gentlemen [2019 WEB-DLRip-AVC] () + [MVO] - ExKinoRay Enigma2010 Скачать
14 | 0

28-11-2019 20:33  

Отключить всю рекламу на сайте

    Дорогой пользователь! Огромная просьба, поблагодарите релизера, оцените раздачу и оставьте свои комментарий, если Вы скачали Джентльмены через торрент бесплатно!
    Комментировать посты могут только пользователи прошедшие не сложную регистрацию
    Показать сообщения:    

    Джентльмены через торрент
    Скачать бесплатно Джентльмены
    Джентльмены скачать торрент
    Джентльмены смотреть онлайн
    Cкачать фильм Джентльмены бесплатно
    Джентльмены скачать торрент в хорошем качестве
    Джентльмены смотреть онлайн бесплатно в хорошем качестве


    Вы не можете начинать темы
    Вы не можете отвечать на сообщения
    Вы не можете редактировать свои сообщения
    Вы не можете удалять свои сообщения
    Вы не можете голосовать в опросах
    Вы не можете прикреплять файлы к сообщениям
    Вы можете скачивать файлы