Ссылка на приватное зеркало нашего сайта всего за 1$. Внимание количество ограничено!!!

2 сезон

iTunes

1 сезон

1

2 сезон

2 сезон

iTunes

1 сезон

RePack

30

Ultimate

ВАЖНО

ИГРА 18+

pack

RePack

MK11
pack

Забери бонус

RePack

jed

!!Акция!!

Alien_Rage

RePack

fifa19

RePack

Assassins Creed: Odyssey

RePack

NEED FOR SPEED™ PAYBACK

4 сезон

9 сезон

Бесстыжие 9 сезон

Все сериалы

все сериалы на PB.wtf

RePack

FAR CRY 5
  

Всегда верен / Semper Fi (Генри Алекс Рубин) [2019, Боевик, драма, BD Remux 1080p] DUB [iTunes] pb.wtf

Всегда верен через торрент pb.wtf

Размер: 27.12 GB | Добавлен: 7 мес. назад | Торрент скачан:35 раз
Скачать  

13-04-2020 11:43 Всегда верен Скачать торрент  

Всегда верен | Semper Fi
Год выпуска: 2019
Страна: Великобритания, США
Студия: Sparkhouse Media, Rumble Films (II), Metalnet Productions
Жанр: Боевик, драма
Продолжительность: 01:39:43
Перевод: Дублированный | iTunes
Субтитры: Английские

Режиссер: Генри Алекс Рубин

rating

В ролях: Лейтон Мистер, Джай Кортни, Финн Уиттрок, Нат Вулф, Бо Напп, Артуро Кастро, Рэйчел Хендрикс, Эштон Ли, Уэйн Пер, Джаред Банкенс

Описание: Кэл гордо носит звание офицера полиции и привык всё делать по правилам. От своего окружения он также требует уважения к законам страны и их чёткого соблюдения. Однажды во время потасовки в баре, его младший брат Ойстер случайно совершает убийство, после чего пытается скрыться с места преступления. Кэл, будучи верным своим принципам, не даёт ему сбежать. Однако вскоре он понимает, что совершил большую ошибку. Кэл осознаёт, что закон, которому он был так предан, не всегда оказывается справедлив. Он решает вытащить Ойстера из тюрьмы, разработав хитроумный план по его освобождению.

Качество: BD Remux 1080p
Формат: MKV

Видео: MPEG-4 AVC, 1920x1080, 34.9 Mbit/s, 23.976 fps
Аудио #01: 48 kHz, AC3, 5.1, 384 Kbps | iTunes | RUS |
Аудио #02: 48 kHz, DTS-HD MA, 5.1, 3666 Kbps | Оригинал | ENG |
скриншот  скриншот  скриншот  скриншот  скриншот  

General
Unique ID : 198811350122752022698572614071273512607 (0x9591AC5A044878D223B636AF500DDE9F)
Complete name : E:Video111Semper.Fi.2019.BDREMUX.1080p.seleZen.mkv
Format : Matroska
Format version : Version 4
File size : 27.1 GiB
Duration : 1 h 39 min
Overall bit rate mode : Variable
Overall bit rate : 38.9 Mb/s
Movie name : Semper Fi 2019 from селезень
Encoded date : UTC 2020-04-13 10:37:05
Writing application : mkvmerge v40.0.0 ('Old Town Road + Pony') 64-bit
Writing library : libebml v1.3.9 + libmatroska v1.5.2

Video
ID : 1
Format : AVC
Format/Info : Advanced Video Codec
Format profile : High@L4.1
Format settings : CABAC / 4 Ref Frames
Format settings, CABAC : Yes
Format settings, Reference : 4 frames
Format settings, GOP : M=3, N=12
Codec ID : V_MPEG4/ISO/AVC
Duration : 1 h 39 min
Bit rate mode : Variable
Bit rate : 34.9 Mb/s
Maximum bit rate : 37.0 Mb/s
Width : 1 920 pixels
Height : 1 080 pixels
Display aspect ratio : 16:9
Frame rate mode : Constant
Frame rate : 23.976 (24000/1001) FPS
Color space : YUV
Chroma subsampling : 4:2:0
Bit depth : 8 bits
Scan type : Progressive
Bits/(Pixel*Frame) : 0.702
Stream size : 24.3 GiB (90%)
Language : English
Default : Yes
Forced : No

Audio #1
ID : 2
Format : AC-3
Format/Info : Audio Coding 3
Commercial name : Dolby Digital
Codec ID : A_AC3
Duration : 1 h 39 min
Bit rate mode : Constant
Bit rate : 384 kb/s
Channel(s) : 6 channels
Channel layout : L R C LFE Ls Rs
Sampling rate : 48.0 kHz
Frame rate : 31.250 FPS (1536 SPF)
Compression mode : Lossy
Stream size : 274 MiB (1%)
Title : iTunes
Language : Russian
Service kind : Complete Main
Default : Yes
Forced : Yes

Audio #2
ID : 3
Format : DTS XLL
Format/Info : Digital Theater Systems
Commercial name : DTS-HD Master Audio
Codec ID : A_DTS
Duration : 1 h 39 min
Bit rate mode : Variable
Bit rate : 3 666 kb/s
Channel(s) : 6 channels
Channel layout : C L R Ls Rs LFE
Sampling rate : 48.0 kHz
Frame rate : 93.750 FPS (512 SPF)
Bit depth : 24 bits
Compression mode : Lossless
Stream size : 2.55 GiB (9%)
Title : Original
Language : English
Default : No
Forced : No

Text
ID : 4
Format : UTF-8
Codec ID : S_TEXT/UTF8
Codec ID/Info : UTF-8 Plain Text
Duration : 1 h 32 min
Bit rate : 78 b/s
Count of elements : 1768
Stream size : 53.5 KiB (0%)
Title : Full
Language : English
Default : No
Forced : No

Menu
00:00:00.000 : en:Chapter 01
00:04:33.315 : en:Chapter 02
00:11:32.942 : en:Chapter 03
00:20:42.032 : en:Chapter 04
00:25:34.992 : en:Chapter 05
00:29:22.219 : en:Chapter 06
00:36:19.969 : en:Chapter 07
00:44:05.977 : en:Chapter 08
00:48:10.471 : en:Chapter 09
00:53:35.838 : en:Chapter 10
01:02:04.387 : en:Chapter 11
01:05:32.595 : en:Chapter 12
01:11:07.805 : en:Chapter 13
01:18:20.696 : en:Chapter 14
01:24:45.247 : en:Chapter 15
01:29:36.746 : en:Chapter 16

pb.wtf



Скачать Всегда верен через торрент https://i111.fastpic.ru/big/2020/0413/02/0b60a361465af5e3c3a84a6bf4aff302.jpg Скачать фильм Всегда верен через торрент бесплантно в хорошем качестве Описание: Кэл гордо носит звание офицера полиции и привык всё делать по правилам. От своего окружения он также требует уважения к законам ... 10 10 3
Торрент: Зарегистрирован [2020-04-13 11:43] · скачан: 35 раз
Статус: √ проверено
Размер: 27.12 GB
Как cкачать? Как скачать Всегда верен через торрент | qTorrent

% Раздел Тема Автор DL S | L
Фильмы 2019-2020 [DVDrip, WEB-DLRip, HDrip] (DUB, MVO) [ 1.42 GB ] Всегда верен / Semper Fi [2019 BDRip] - Twi7ter Скачать
12 | 1
Фильмы 2019-2020 [DVDrip, WEB-DLRip, HDrip] (DUB, MVO) [ 1.89 GB ] Всегда верен / Semper Fi [2019 BDRip-AVC] - ExKinoRay Enigma2010 Скачать
6 | 0
Фильмы [HD 720p, 1080p] (Хороший звук DUB, MVO) [ 5.05 GB ] Всегда верен / Semper Fi [2019 BDRip 720p] bober100 Скачать
2 | 0
Фильмы 2019-2020 [DVDrip, WEB-DLRip, HDrip] (DUB, MVO) [ 745 MB ] Всегда верен / Semper Fi [2019 HDRip] bober100 Скачать
1 | 0
Фильмы 2019-2020 [DVDrip, WEB-DLRip, HDrip] (DUB, MVO) [ 1.42 GB ] Всегда верен / Semper Fi [2019 BDRip] bober100 Скачать
4 | 0
Фильмы [HD 720p, 1080p] (Хороший звук DUB, MVO) [ 8.16 GB ] Всегда верен / Semper Fi [2019 BDRip 1080p] bober100 Скачать
2 | 0

28-11-2019 20:33  

Отключить всю рекламу на сайте

    Дорогой пользователь! Огромная просьба, поблагодарите релизера, оцените раздачу и оставьте свои комментарий, если Вы скачали Всегда верен через торрент бесплатно! Внесите свою лепту в развитие PiratBit!
    Комментировать посты могут только пользователи прошедшие не сложную регистрацию
    Показать сообщения:    

    Всегда верен через торрент
    Скачать бесплатно Всегда верен
    Всегда верен скачать торрент
    Всегда верен смотреть онлайн
    Cкачать фильм Всегда верен бесплатно
    Всегда верен скачать торрент в хорошем качестве
    Всегда верен смотреть онлайн бесплатно в хорошем качестве


    Вы не можете начинать темы
    Вы не можете отвечать на сообщения
    Вы не можете редактировать свои сообщения
    Вы не можете удалять свои сообщения
    Вы не можете голосовать в опросах
    Вы не можете прикреплять файлы к сообщениям
    Вы можете скачивать файлы