Ссылка на приватное зеркало нашего сайта всего за 1$. Внимание количество ограничено!!!

2 сезон

iTunes

1 сезон

1

iTunes

iTunes

iTunes

1 сезон

RePack

30

ИГРА 18+

pack

ВАЖНО

!!Акция!!

Alien_RageХит недели

RePack

MK11
pack

Забери бонус

RePack

jed

!!Акция!!

Alien_Rage

RePack

fifa19

RePack

Assassins Creed: Odyssey

RePack

NEED FOR SPEED™ PAYBACK

4 сезон

9 сезон

Бесстыжие 9 сезон

Все сериалы

все сериалы на PB.wtf

RePack

FAR CRY 5
  

Зулейха открывает глаза / Сезон: 1 / Серии: 1-8 из 8 (Егор Анашкин) [2020, Драма, история, SATRip] pb.wtf

Зулейха открывает глаза через торрент pb.wtf

Раздают: 1 [ 0 KB/s ]
Размер: 5.44 GB | Добавлен: 6 мес. назад | Торрент скачан:48 раз
Скачать  

13-04-2020 11:50 Зулейха открывает глаза Скачать торрент  

Зулейха открывает глаза
Год выпуска: 2020
Страна: Россия
Жанр: Драма, история
Продолжительность: ~ 00:50:00 серия
Субтитры: отсутствуют

Режиссер: Егор Анашкин



В ролях: Чулпан Хаматова, Сергей Маковецкий, Елена Шевченко, Юлия Пересильд, Роман Мадянов, Александр Сирин, Евгений Морозов, Дмитрий Куличков, Владимир Щербаков, Лилия Пысларь, Александр Баширов, Рамиль Сабитов, Роза Хайруллина, Николай Козак, Семён Шкаликов

Описание: По одноимённому роману Гузели Яхиной. Зима 1930 года. У татарской крестьянки Зулейхи убивают мужа, а ее саму раскулачивают и отправляют по каторжному маршруту в Сибирь. Тридцать ссыльных оказываются брошенными в глухой тайге без пищи, крова и теплой одежды. Неграмотные крестьяне и ленинградские интеллигенты, "деклассированные элементы" и уголовники, мусульмане и христиане, язычники и атеисты, русские, татары, немцы, чуваши – все они отстаивают у суровой природы и безжалостного государства свое право на жизнь. Зулейха находит в себе силы пройти через все испытания, главные из которых – испытание Любовью и Прощением. Чтобы выжить – нужно любить. Даже если это любовь к злейшему врагу. Чтобы выжить – нужно простить. Себя, других, свою судьбу – страшную, и свою родину – жестокую. Даже саму историю, в которой, как и в каждой человеческой жизни, так мало справедливости...

Качество: SATRip
Формат: AVI

Видео: 720x304 (2.37:1), 25 fps, XviD build 73 ~1650 kbps avg, 0.30 bit/pixel
Аудио: 48 kHz, MPEG Layer 3, 2 ch, ~192.00 kbps avg
скриншот  скриншот  скриншот  скриншот  

Общее
Полное имя : C:\Zuleiha.otkryvaet.glaza.2020.XviD.SATRip.25Kuzmich\Zuleiha.otkryvaet.glaza.e01.XviD.SATRip.25Kuzmich.avi
Формат : AVI
Формат/Информация : Audio Video Interleave
Размер файла : 648 Мбайт
Продолжительность : 48 м. 56 с.
Общий поток : 1850 Кбит/сек
Программа кодирования : VirtualDubMod 1.5.10.3 (build 2550/release)
Библиотека кодирования : VirtualDubMod build 2550/release

Видео
Идентификатор : 0
Формат : MPEG-4 Visual
Профиль формата : Advanced Simple@L5
Настройки формата : BVOP1
Параметр BVOP формата : 1
Параметр QPel формата : Нет
Параметр GMC формата : Без точки перехода
Параметр матрицы формата : Default (MPEG)
Идентификатор кодека : XVID
Идентификатор кодека/Подсказка : XviD
Продолжительность : 48 м. 56 с.
Битрейт : 1576 Кбит/сек
Ширина : 720 пикселей
Высота : 304 пикселя
Соотношение сторон : 2,35:1
Частота кадров : 25,000 кадров/сек
Цветовое пространство : YUV
Субдискретизация насыщенности : 4:2:0
Битовая глубина : 8 бит
Тип развёртки : Прогрессивная
Метод сжатия : С потерями
Бит/(Пиксели*Кадры) : 0.288
Размер потока : 552 Мбайт (85%)
Библиотека кодирования : XviD 73

Аудио
Идентификатор : 1
Формат : MPEG Audio
Версия формата : Version 1
Профиль формата : Layer 3
Настройки формата : Joint stereo / MS Stereo
Идентификатор кодека : 55
Идентификатор кодека/Подсказка : MP3
Продолжительность : 48 м. 56 с.
Вид битрейта : Постоянный
Битрейт : 192 Кбит/сек
Каналы : 2 канала
Частота : 48,0 КГц
Частота кадров : 41,667 кадра/сек (1152 SPF)
Метод сжатия : С потерями
Размер потока : 67,2 Мбайт (10%)
Выравнивание : Соединение по промежуткам
Библиотека кодирования : LAME3.99r
Настройки программы : -m j -V 4 -q 2 -lowpass 18.6 -b 192

Когда раздача ведётся путём добавления новых серий, при каждом добавлении создётся новый торрент. Чтобы начать докачку новой серии, пользователям необходимо сделать следующее:
(1) остановить скачивание,
(2) удалить старый торрент у себя из клиента (старые серии удалять не надо),
(3) скачать новый торрент и запустить его у себя в клиенте вместо старого, при этом указать клиенту путь в старую папку, куда и должно происходить скачивание новых серий.
Ваш клиент при этом должен произвести хеширование (проверку) старой папки (если не производит сам - помогите ему сделать это), и будет докачивать только те серии, которых у вас ещё нет. Старые серии при этом не удаляются, а продолжают раздаваться!
Eсли вы уже удалили старые серии, то предотвратить повторную закачку старых серий можно, отжав галочку в соответсвующих местах при запуске нового торрента. По возможности, желательно не удалять старые серии как можно дольше, чтобы релизёр не столько продолжал раздавать старые серии, а смог сконцентрироваться на новых.
pb.wtf



Скачать Зулейха открывает глаза через торрент https://img10.lostpic.net/2020/04/13/13110e692773665618b2d0645e7f8b7b.jpg Скачать фильм Зулейха открывает глаза через торрент бесплантно в хорошем качестве Описание: По одноимённому роману Гузели Яхиной. Зима 1930 года. У татарской крестьянки Зулейхи убивают мужа, а ее саму раскулачивают и ... 7.8 10 12
Торрент: Зарегистрирован [2020-04-22 16:30] · скачан: 48 раз
Статус: √ проверено
Размер: 5.44 GB
Как cкачать? Как скачать Зулейха открывает глаза через торрент | qTorrent

% Раздел Тема Автор DL S | L
Наши сериалы [ 22.38 GB ] Зулейха открывает глаза / Сезон: 1 / Серии: 1-8 из 8 [2020 история HDTV 1080i] bober100 Скачать
1 | 0
Наши сериалы [ 10.83 GB ] Зулейха открывает глаза / Сезон: 1 / Серии: 1-8 из 8 [2020 история HDTVRip 720p] bober100 Скачать
2 | 0
Наши сериалы [ 5.29 GB ] Зулейха открывает глаза / Сезон: 1 / Серии: 1-8 из 8 [2020 история WEB-DLRip] bober100 Скачать
3 | 1
Наши сериалы [ 5.26 GB ] Зулейха открывает глаза / Сезон: 1 / Серии: 1-8 из 8 [2020 история WEB-DLRip-AVC] bober100 Скачать
1 | 0


Последний раз редактировалось: bober100 (2020-04-21 16:11), всего редактировалось 3 раз(а)

28-11-2019 20:33  

Отключить всю рекламу на сайте

    Дорогой пользователь! Огромная просьба, поблагодарите релизера, оцените раздачу и оставьте свои комментарий, если Вы скачали Зулейха открывает глаза через торрент бесплатно! Внесите свою лепту в развитие PiratBit!
    Комментировать посты могут только пользователи прошедшие не сложную регистрацию
    Показать сообщения:    

    Зулейха открывает глаза через торрент
    Скачать бесплатно Зулейха открывает глаза
    Зулейха открывает глаза скачать торрент
    Зулейха открывает глаза смотреть онлайн
    Cкачать фильм Зулейха открывает глаза бесплатно
    Зулейха открывает глаза скачать торрент в хорошем качестве
    Зулейха открывает глаза смотреть онлайн бесплатно в хорошем качестве


    Вы не можете начинать темы
    Вы не можете отвечать на сообщения
    Вы не можете редактировать свои сообщения
    Вы не можете удалять свои сообщения
    Вы не можете голосовать в опросах
    Вы не можете прикреплять файлы к сообщениям
    Вы можете скачивать файлы