2 сезон

iTunes

1 сезон

1

iTunes

iTunes

iTunes

1 сезон

RePack

30

ИГРА 18+

pack

ВАЖНО

!!Акция!!

Alien_RageХит недели

RePack

MK11
pack

Забери бонус

RePack

jed

!!Акция!!

Alien_Rage

RePack

fifa19

RePack

Assassins Creed: Odyssey

RePack

NEED FOR SPEED™ PAYBACK

4 сезон

9 сезон

Бесстыжие 9 сезон

Все сериалы

все сериалы на PB.wtf

RePack

FAR CRY 5
  

Миша портит всё / Сезон: 1 / Серии: 1-13 из 13 (Всеволод Бродский) [2020, Комедия, WEB-DL 1080p] pb.wtf

Миша портит всё через торрент pb.wtf

Размер: 7.57 GB | Добавлен: 6 мес. назад | Торрент скачан:42 раза
Скачать  

13-04-2020 18:31 Миша портит всё Скачать торрент  

Миша портит всё
Год выпуска: 2020
Страна: Россия
Студия: СТС, кинокомпания МИМ
Жанр: Комедия
Продолжительность: ~ 00:23:00
Перевод: не требуется
Субтитры: отсутствуют

Режиссер: Всеволод Бродский

В ролях: Михаил Галустян, Елена Николаева (II), Роман Богданов, Александра Абрамейцева, Артемий Падалка, Ирина Серова, Александр Хохлов (II)

Описание: В каждой серии приставучий гений Миша спасает среднестатистическую семью Горшковых от «разводов» маркетологов, стереотипов и навязанных традиций.



Качество: WEB-DL 1080p
Формат: MKV

Видео: MPEG-4 AVC, ~ 3500 Кбит/с, 1920x1080
Аудио: 48.0 kHz, AC3 Dolby Digital, 2/0 (L,R) ch, ~ 192 kbps
скриншот  скриншот  скриншот  скриншот  скриншот  

General
Unique ID : 186841936964639854010415974606468115311 (0x8C9072B86F4CFA9089569C3F10C56B6F)
Complete name : C:\00\Миша портит всё.2020.WEB-DL 1080p.Files-x\02. Миша портит всё.2020.WEB-DL 1080p.Files-x.mkv
Format : Matroska
File size : 600 MiB
Duration : 22mn 49s
Overall bit rate : 3 672 Kbps
Encoded date : UTC 2020-04-13 17:22:45
Writing application : mkvmerge v7.8.0 ('River Man') 32bit built on Apr 3 2015 12:11:22
Writing library : libebml v1.3.1 + libmatroska v1.4.2

Video
ID : 1
Format : AVC
Format/Info : Advanced Video Codec
Format profile : High@L5.0
Format settings, CABAC : Yes
Format settings, ReFrames : 5 frames
Format settings, GOP : M=4, N=50
Codec ID : V_MPEG4/ISO/AVC
Duration : 22mn 49s
Bit rate : 3 407 Kbps
Width : 1 920 pixels
Height : 1 080 pixels
Display aspect ratio : 16:9
Frame rate : 25.000 fps
Standard : PAL
Color space : YUV
Chroma subsampling : 4:2:0
Bit depth : 8 bits
Scan type : Progressive
Bits/(Pixel*Frame) : 0.066
Stream size : 556 MiB (93%)
Color primaries : BT.709-5, BT.1361, IEC 61966-2-4, SMPTE RP177
Transfer characteristics : BT.709-5, BT.1361
Matrix coefficients : BT.709-5, BT.1361, IEC 61966-2-4 709, SMPTE RP177

Audio
ID : 2
Format : AC-3
Format/Info : Audio Coding 3
Mode extension : CM (complete main)
Codec ID : A_AC3
Duration : 22mn 49s
Bit rate mode : Constant
Bit rate : 192 Kbps
Channel(s) : 2 channels
Channel positions : Front: L R
Sampling rate : 48.0 KHz
Bit depth : 16 bits
Compression mode : Lossy
Stream size : 31.4 MiB (5%)

Раздача ведётся путём добавления новых серий, при каждом добавлении создаётся новый торрент. Чтобы начать докачку новой серии, пользователям необходимо сделать следующее:

- Остановить скачивание.
- Удалить старый торрент у себя из клиента (старые серии удалять не надо).
- Скачать новый торрент и запустить его у себя в клиенте вместо старого, при этом указать клиенту путь в старую папку куда и должно происходить скачивание новых серий.

Ваш клиент при этом должен произвести хеширование (проверку) старой папки (если не производит сам - помогите ему сделать это), и будет докачивать только те серии которых у вас ещё нет. Старые серии при этом не удаляются, а продолжают раздаваться!
Если вы уже удалили старые серии, то предотвратить повторную закачку старых серий можно, отжав галочку в соответствующих местах при запуске нового торрента. По возможности, желательно не удалять старые серии как можно дольше, чтобы релизер не столько продолжал раздавать старые серии, а смог сконцентрироваться на новых.
pb.wtf



Скачать Миша портит всё через торрент https://img10.lostpic.net/2020/04/13/acfd5a3b6471b4bdbc28c03a2bb847aa.th.jpg Скачать фильм Миша портит всё через торрент бесплантно в хорошем качестве Описание: В каждой серии приставучий гений Миша спасает среднестатистическую семью Горшковых от «разводов» маркетологов, стереоов и ... 8.3 10 11
Торрент: Зарегистрирован [2020-04-27 19:31] · скачан: 42 раз
Статус: √ проверено
Размер: 7.57 GB
Как cкачать? Как скачать Миша портит всё через торрент | qTorrent

% Раздел Тема Автор DL S | L
Наши сериалы [ 3.71 GB ] Миша портит всё / Сезон: 1 / Серии: 1-13 из 13 [2020 WEB-DLRip] bober100 Скачать
1 | 0
Наши сериалы [ 6.53 GB ] Миша портит всё / Сезон: 1 / Серии: 1-13 из 13 [2020 WEB-DL 720p] bober100 Скачать
2 | 0
Наши сериалы [ 3.69 GB ] Миша портит всё / Сезон: 1 / Серии: 1-13 из 13 [2020 WEB-DLRip-AVC] bober100 Скачать
1 | 0
Наши сериалы [ 6.86 GB ] Миша портит всё / Сезон: 1 / Серии: 1-13 из 13 [2020 HDTV 1080i] bober100 Скачать
1 | 0

28-11-2019 20:33  

Отключить всю рекламу на сайте

    Дорогой пользователь! Огромная просьба, поблагодарите релизера, оцените раздачу и оставьте свои комментарий, если Вы скачали Миша портит всё через торрент бесплатно! Внесите свою лепту в развитие PiratBit!
    Комментировать посты могут только пользователи прошедшие не сложную регистрацию
    Показать сообщения:    

    Миша портит всё через торрент
    Скачать бесплатно Миша портит всё
    Миша портит всё скачать торрент
    Миша портит всё смотреть онлайн
    Cкачать фильм Миша портит всё бесплатно
    Миша портит всё скачать торрент в хорошем качестве
    Миша портит всё смотреть онлайн бесплатно в хорошем качестве


    Вы не можете начинать темы
    Вы не можете отвечать на сообщения
    Вы не можете редактировать свои сообщения
    Вы не можете удалять свои сообщения
    Вы не можете голосовать в опросах
    Вы не можете прикреплять файлы к сообщениям
    Вы можете скачивать файлы