Ссылка на приватное зеркало нашего сайта всего за 1$. Внимание количество ограничено!!!

2 сезон

iTunes

1 сезон

1

iTunes

iTunes

iTunes

1 сезон

RePack

30

ИГРА 18+

pack

ВАЖНО

!!Акция!!

Alien_RageХит недели

RePack

MK11
pack

Забери бонус

RePack

jed

!!Акция!!

Alien_Rage

RePack

fifa19

RePack

Assassins Creed: Odyssey

RePack

NEED FOR SPEED™ PAYBACK

4 сезон

9 сезон

Бесстыжие 9 сезон

Все сериалы

все сериалы на PB.wtf

RePack

FAR CRY 5
  

Консультант / Сезон: 1 / Серии: 1-16 из 16 (Олег Туранский) [2020, Детектив, WEB-DLRip] pb.wtf

Консультант через торрент pb.wtf

Раздают: 1 [ 0 KB/s ]
Размер: 9.07 GB | Добавлен: 5 мес. 25 д. назад | Торрент скачан:48 раз
Скачать  

13-04-2020 20:23 Консультант Скачать торрент  

Консультант
Год выпуска: 2020
Страна: Россия, Украина
Жанр: Детектив
Продолжительность: ~ 00:45:00
Перевод: Не требуется
Субтитры: отсутствуют

Режиссер: Олег Туранский

В ролях: Алексей Морозов, Алина Сергеева, Павел Вишняков, Алексей Нагрудный, Анна Арефьева, Дмитрий Соловьёв (IV), Олеся Жураковская, Игорь Портянко, Павел Южаков-Харланчук, Ольга Морозова, Александра Коваленко

Описание: В центре сюжета находится прикованный к инвалидной коляске супер криминалист Борис Крылов. В расследованиях он использует не очевидные и парадоксальные методы, благодаря которым раскрывает даже самые трудные преступления. За такие заслуги Бориса называют современным Шерлоком Холмсом. Несмотря на свой колоссальный опыт и талант настоящим испытанием для главного героя становится расследование рядового, на первый взгляд, ДТП, в результате которого погибает его отец...

Качество: WEB-DLRip
Формат: AVI

Видео: XviD, ~ 1611 Кбит/с, 720x400, 25 кадр/с
Аудио: 48.0 kHz, AC3 Dolby Digital, 2/0 (L,R) ch, ~ 192 kbps
скриншот  скриншот  скриншот  скриншот  

General
Complete name : C:01.Консультант.(2020).WEB-DLRip.by.Nicodem.Files-x.avi
Format : AVI
Format/Info : Audio Video Interleave
File size : 580 MiB
Duration : 44mn 44s
Overall bit rate : 1 813 Kbps
Writing application : VirtualDubMod 1.5.10.3 | www.virtualdub-fr.org || (build 2550/release)
Writing library : VirtualDubMod build 2550/release

Video
ID : 0
Format : MPEG-4 Visual
Format profile : Advanced Simple@L5
Format settings, BVOP : 1
Format settings, QPel : No
Format settings, GMC : No warppoints
Format settings, Matrix : Custom
Codec ID : XVID
Codec ID/Hint : XviD
Duration : 44mn 44s
Bit rate : 1 611 Kbps
Width : 720 pixels
Height : 400 pixels
Display aspect ratio : 16:9
Frame rate : 25.000 fps
Color space : YUV
Chroma subsampling : 4:2:0
Bit depth : 8 bits
Scan type : Progressive
Compression mode : Lossy
Bits/(Pixel*Frame) : 0.224
Stream size : 516 MiB (89%)
Writing library : XviD 73

Audio
ID : 1
Format : AC-3
Format/Info : Audio Coding 3
Mode extension : CM (complete main)
Codec ID : 2000
Duration : 44mn 44s
Bit rate mode : Constant
Bit rate : 192 Kbps
Channel(s) : 2 channels
Channel positions : Front: L R
Sampling rate : 48.0 KHz
Bit depth : 16 bits
Compression mode : Lossy
Stream size : 61.4 MiB (11%)
Alignment : Split accross interleaves
Interleave, duration : 40 ms (1.00 video frame)
Interleave, preload duration : 500 ms

Внимание! Раздача ведётся путём добавления новых серий; при каждом добавлении создfётся новый торрент. Чтобы начать докачку новой серии, пользователям необходимо сделать следующее: (1) остановить скачивание, (2) удалить старый торрент у себя из клиента (старые серии удалять не надо), (3) скачать новый торрент и запустить его у себя в клиенте вместо старого, при этом указать клиенту путь в старую папку куда и должно происходить скачивание новых серий.

Ваш клиент при этом должен произвести хеширование (проверку) старой папки (если не производит сам - помогите ему сделать это), и будет докачивать только те серии которых у вас ещё нет. Старые серии при этом не удаляются, а продолжают раздаваться!

Eсли вы уже удалили старые серии, то предотвратить повторную закачку старых серий можно, отжав галочку в соответсвующих местах при запуске нового торрента.
pb.wtf



Скачать Консультант через торрент https://i111.fastpic.ru/big/2020/0413/b6/93166238ae1d4712a4c2a45c1bebacb6.jpg Скачать фильм Консультант через торрент бесплантно в хорошем качестве Описание: В центре сюжета находится прикованный к инвалидной коляске супер криминалист Борис Крылов. В расследованиях он использует не ... 10 10 6
Торрент: Зарегистрирован [2020-04-24 18:22] · скачан: 48 раз
Статус: √ проверено
Размер: 9.07 GB
Как cкачать? Как скачать Консультант через торрент | qTorrent

% Раздел Тема Автор DL S | L
Наши сериалы [ 8.94 GB ] Консультант / Сезон: 1 / Серии: 1-16 из 16 [2020 WEB-DLRip-AVC] bober100 Скачать
2 | 0
Наши сериалы [ 22.91 GB ] Консультант / Сезон: 1 / Серии: 1-16 из 16 [2020 WEB-DL 1080p] bober100 Скачать
2 | 0


Последний раз редактировалось: bober100 (2020-04-24 18:22), всего редактировалось 4 раз(а)

28-11-2019 20:33  

Отключить всю рекламу на сайте

16-04-2020 07:03 Консультант Скачать торрент  

Интересно?pb.wtf



20-04-2020 15:29 Консультант Скачать торрент  

Да так себе!pb.wtf



    Дорогой пользователь! Огромная просьба, поблагодарите релизера, оцените раздачу и оставьте свои комментарий, если Вы скачали Консультант через торрент бесплатно! Внесите свою лепту в развитие PiratBit!
    Комментировать посты могут только пользователи прошедшие не сложную регистрацию
    Показать сообщения:    

    Консультант через торрент
    Скачать бесплатно Консультант
    Консультант скачать торрент
    Консультант смотреть онлайн
    Cкачать фильм Консультант бесплатно
    Консультант скачать торрент в хорошем качестве
    Консультант смотреть онлайн бесплатно в хорошем качестве


    Вы не можете начинать темы
    Вы не можете отвечать на сообщения
    Вы не можете редактировать свои сообщения
    Вы не можете удалять свои сообщения
    Вы не можете голосовать в опросах
    Вы не можете прикреплять файлы к сообщениям
    Вы можете скачивать файлы