Ссылка на приватное зеркало нашего сайта всего за 1$. Внимание количество ограничено!!!

2 сезон

iTunes

1 сезон

1

iTunes

iTunes

iTunes

1 сезон

RePack

30

ИГРА 18+

pack

ВАЖНО

!!Акция!!

Alien_RageХит недели

RePack

MK11
pack

Забери бонус

RePack

jed

!!Акция!!

Alien_Rage

RePack

fifa19

RePack

Assassins Creed: Odyssey

RePack

NEED FOR SPEED™ PAYBACK

4 сезон

9 сезон

Бесстыжие 9 сезон

Все сериалы

все сериалы на PB.wtf

RePack

FAR CRY 5
  

Миша портит всё / Сезон: 1 / Серии: 1-13 из 13 (Всеволод Бродский) [2020, Комедия, WEB-DLRip-AVC] pb.wtf

Миша портит всё через торрент pb.wtf

Размер: 3.69 GB | Добавлен: 5 мес. 21 д. назад | Торрент скачан:18 раз
Скачать  

13-04-2020 20:54 Миша портит всё Скачать торрент  

Миша портит всё
Год выпуска: 2020
Страна: Россия
Студия: СТС, кинокомпания МИМ
Жанр: Комедия
Продолжительность: ~ 00:23:00
Перевод: не требуется
Субтитры: отсутствуют

Режиссер: Всеволод Бродский

В ролях: Михаил Галустян, Елена Николаева (II), Роман Богданов, Александра Абрамейцева, Артемий Падалка, Ирина Серова, Александр Хохлов (II)

Описание: В каждой серии приставучий гений Миша спасает среднестатистическую семью Горшковых от «разводов» маркетологов, стереотипов и навязанных традиций.



Качество: WEB-DLRip-AVC
Формат: MKV

Видео: MPEG-4 AVC, ~ 1600 Кбит/с, 1024x576, 25 кадр/с
Аудио: 48.0 kHz, AC3 Dolby Digital, 2/0 (L,R) ch, ~ 192 kbps
скриншот  скриншот  скриншот  скриншот  

General
Unique ID : 226938467568087268323679959066470522693 (0xAABAC24F489FD4D2A9844FF794741F45)
Complete name : F:\Миша портит всё.(2020).WEB-DLRip.(AVC).Files-x\01.Миша портит всё.(2020).WEB-DLRip.(AVC).by.Серый1779.Files-x.mkv
Format : Matroska
Format version : Version 2
File size : 296 MiB
Duration : 23 min 5 s
Overall bit rate : 1 794 kb/s
Encoded date : UTC 2020-04-13 20:32:26
Writing application : mkvmerge v7.8.0 ('River Man') 32bit built on Apr 3 2015 12:11:22
Writing library : libebml v1.3.1 + libmatroska v1.4.2

Video
ID : 1
Format : AVC
Format/Info : Advanced Video Codec
Format profile : High@L4.1
Format settings : CABAC / 9 Ref Frames
Format settings, CABAC : Yes
Format settings, RefFrames : 9 frames
Codec ID : V_MPEG4/ISO/AVC
Duration : 23 min 5 s
Bit rate : 1 600 kb/s
Width : 1 024 pixels
Height : 576 pixels
Display aspect ratio : 16:9
Frame rate mode : Constant
Frame rate : 25.000 FPS
Color space : YUV
Chroma subsampling : 4:2:0
Bit depth : 8 bits
Scan type : Progressive
Bits/(Pixel*Frame) : 0.109
Stream size : 259 MiB (87%)
Writing library : x264 core 146 r2538 121396c
Encoding settings : cabac=1 / ref=9 / deblock=1:-2:-1 / analyse=0x3:0x133 / me=umh / subme=9 / psy=1 / psy_rd=1.00:0.15 / mixed_ref=1 / me_range=32 / chroma_me=1 / trellis=2 / 8x8dct=1 / cqm=0 / deadzone=21,11 / fast_pskip=0 / chroma_qp_offset=-3 / threads=18 / lookahead_threads=3 / sliced_threads=0 / nr=0 / decimate=1 / interlaced=0 / bluray_compat=0 / constrained_intra=0 / bframes=9 / b_pyramid=2 / b_adapt=2 / b_bias=0 / direct=1 / weightb=1 / open_gop=0 / weightp=2 / keyint=250 / keyint_min=25 / scenecut=40 / intra_refresh=0 / rc=2pass / mbtree=0 / bitrate=1600 / ratetol=1.0 / qcomp=0.60 / qpmin=0 / qpmax=69 / qpstep=4 / cplxblur=20.0 / qblur=0.5 / ip_ratio=1.40 / pb_ratio=1.30 / aq=2:1.00
Default : Yes
Forced : No
Color range : Limited
Color primaries : BT.709
Transfer characteristics : BT.709
Matrix coefficients : BT.709

Audio
ID : 2
Format : AC-3
Format/Info : Audio Coding 3
Format settings, Endianness : Big
Codec ID : A_AC3
Duration : 23 min 5 s
Bit rate mode : Constant
Bit rate : 192 kb/s
Channel(s) : 2 channels
Channel positions : Front: L R
Sampling rate : 48.0 kHz
Frame rate : 31.250 FPS (1536 SPF)
Bit depth : 16 bits
Compression mode : Lossy
Stream size : 31.7 MiB (11%)
Service kind : Complete Main
Default : Yes
Forced : No

Раздача ведётся путём добавления новых серий, при каждом добавлении создаётся новый торрент. Чтобы начать докачку новой серии, пользователям необходимо сделать следующее:

- Остановить скачивание.
- Удалить старый торрент у себя из клиента (старые серии удалять не надо).
- Скачать новый торрент и запустить его у себя в клиенте вместо старого, при этом указать клиенту путь в старую папку куда и должно происходить скачивание новых серий.

Ваш клиент при этом должен произвести хеширование (проверку) старой папки (если не производит сам - помогите ему сделать это), и будет докачивать только те серии которых у вас ещё нет. Старые серии при этом не удаляются, а продолжают раздаваться!
Если вы уже удалили старые серии, то предотвратить повторную закачку старых серий можно, отжав галочку в соответствующих местах при запуске нового торрента. По возможности, желательно не удалять старые серии как можно дольше, чтобы релизер не столько продолжал раздавать старые серии, а смог сконцентрироваться на новых.
pb.wtf



Скачать Миша портит всё через торрент https://img10.lostpic.net/2020/04/13/acfd5a3b6471b4bdbc28c03a2bb847aa.th.jpg Скачать фильм Миша портит всё через торрент бесплантно в хорошем качестве Описание: В каждой серии приставучий гений Миша спасает среднестатистическую семью Горшковых от «разводов» маркетологов, стереоов и ... 8.2 10 11
Торрент: Зарегистрирован [2020-04-29 13:47] · скачан: 18 раз
Статус: √ проверено
Размер: 3.69 GB
Как cкачать? Как скачать Миша портит всё через торрент | qTorrent

% Раздел Тема Автор DL S | L
Наши сериалы [ 3.71 GB ] Миша портит всё / Сезон: 1 / Серии: 1-13 из 13 [2020 WEB-DLRip] bober100 Скачать
2 | 0
Наши сериалы [ 6.53 GB ] Миша портит всё / Сезон: 1 / Серии: 1-13 из 13 [2020 WEB-DL 720p] bober100 Скачать
1 | 0
Наши сериалы [ 7.57 GB ] Миша портит всё / Сезон: 1 / Серии: 1-13 из 13 [2020 WEB-DL 1080p] bober100 Скачать
1 | 0
Наши сериалы [ 6.86 GB ] Миша портит всё / Сезон: 1 / Серии: 1-13 из 13 [2020 HDTV 1080i] bober100 Скачать
1 | 1


Последний раз редактировалось: bober100 (2020-04-29 13:47), всего редактировалось 7 раз(а)

28-11-2019 20:33  

Отключить всю рекламу на сайте

21-04-2020 08:52 Миша портит всё Скачать торрент  

Бред седой кобылы в три часа ночи???
Или история о том, как не нужно адаптировать зарубежное гауно под наш менталитет???pb.wtf



    Дорогой пользователь! Огромная просьба, поблагодарите релизера, оцените раздачу и оставьте свои комментарий, если Вы скачали Миша портит всё через торрент бесплатно! Внесите свою лепту в развитие PiratBit!
    Комментировать посты могут только пользователи прошедшие не сложную регистрацию
    Показать сообщения:    

    Миша портит всё через торрент
    Скачать бесплатно Миша портит всё
    Миша портит всё скачать торрент
    Миша портит всё смотреть онлайн
    Cкачать фильм Миша портит всё бесплатно
    Миша портит всё скачать торрент в хорошем качестве
    Миша портит всё смотреть онлайн бесплатно в хорошем качестве


    Вы не можете начинать темы
    Вы не можете отвечать на сообщения
    Вы не можете редактировать свои сообщения
    Вы не можете удалять свои сообщения
    Вы не можете голосовать в опросах
    Вы не можете прикреплять файлы к сообщениям
    Вы можете скачивать файлы