Ссылка на приватное зеркало всего за 1$. Внимание количество ограничено!!!

iTunes

iTunes

iTunes

1

iTunes

iTunes

iTunes

iTunes

iTunes

30
pack

$ от Little Big

ВАЖНО

!!Акция!!

Alien_RageХит недели

RePack

Resident Evil 21

ИГРА 18+

pack

RePack

jed

!!Акция!!

Alien_Rage

RePack

fifa19

RePack

Assassins Creed: Odyssey

RePack

NEED FOR SPEED™ PAYBACK

4 сезон

9 сезон

Бесстыжие 9 сезон

Все сериалы

все сериалы на PB.wtf

RePack

FAR CRY 5
  

Беги / Run / Сезон: 1 / Серии: 1-7 из 7 (Алекс Гарленд) [2020, Триллер, мелодрама, комедия, WEBRip 1080p] [MVO] (HDRezka Studio) pb.wtf

Беги через торрент pb.wtf

Размер: 9.49 GB | Добавлен: 6 д. назад | Торрент скачан:5 раз
Скачать  

14-04-2020 06:05 Беги Скачать торрент  

Беги / Run
Год выпуска: 2020
Страна: США
Жанр: Триллер, мелодрама, комедия
Продолжительность: ~ 00:32:00
Перевод: Профессиональный (многоголосый) *HDRezka Studio*

Режиссер: Кейт Дэннис, Натали Бэйли

В ролях: Мерритт Уивер, Донал Глисон, Арчи Панджаби, Тамара Подемски, Фиби Уоллер-Бридж, Шон Браун, ЭйприлАнн Дэйс, Джонатан Дэвис, Стюарт Даулинг, Сима Фишер

Описание: Руби опостылела ее жизнь, поэтому она с радостью откликается на предложение бывшего бойфренда Билли, ставшего успешным гуру, отправиться в путешествие, которое обещает настоящую любовь и открытие новых возможностей.

rating

Качество: WEBRip 1080p
Формат: MKV
Видео: AVC, 6 446 Kbps, 1920x1080, 23.976 fps
Аудио: 48,0 KHz, AC3, 2 Ch, 192 Kbps
скриншот   скриншот   скриншот  

General
Unique ID : 103368758135285570756481357439153465505 (0x4DC41941D3A747FB591CAB3A7B4BE8A1)
Complete name : F:\Run.S01E01.WEBRip.1080p.rus.2.0.HDREZKA.STUDIO.mkv
Format : Matroska
Format version : Version 4 / Version 2
File size : 1.45 GiB
Duration : 30mn 35s
Overall bit rate mode : Variable
Overall bit rate : 6 773 Kbps
Encoded date : UTC 2020-04-13 23:41:17
Writing application : mkvmerge v28.2.0 ('The Awakening') 64-bit
Writing library : libebml v1.3.6 + libmatroska v1.4.9

Video
ID : 1
Format : AVC
Format/Info : Advanced Video Codec
Format profile : High@L4.1
Format settings, CABAC : Yes
Format settings, ReFrames : 1 frame
Codec ID : V_MPEG4/ISO/AVC
Duration : 30mn 35s
Bit rate mode : Variable
Bit rate : 6 446 Kbps
Maximum bit rate : 2 000 Kbps
Width : 1 920 pixels
Height : 1 080 pixels
Display aspect ratio : 16:9
Frame rate mode : Constant
Frame rate : 23.976 fps
Color space : YUV
Chroma subsampling : 4:2:0
Bit depth : 8 bits
Scan type : Progressive
Bits/(Pixel*Frame) : 0.130
Stream size : 1.38 GiB (95%)
Default : Yes
Forced : No

Audio
ID : 2
Format : AC-3
Format/Info : Audio Coding 3
Mode extension : CM (complete main)
Format settings, Endianness : Big
Codec ID : A_AC3
Duration : 30mn 35s
Bit rate mode : Constant
Bit rate : 192 Kbps
Channel(s) : 2 channels
Channel positions : Front: L R
Sampling rate : 48.0 KHz
Compression mode : Lossy
Stream size : 42.0 MiB (3%)
Language : Russian
Default : Yes
Forced : No

Внимание! Раздача ведётся путём добавления новых серий; при каждом добавлении создаётся новый торрент. Чтобы начать докачку новой серии, пользователям необходимо сделать следующее:
(1) остановить скачивание,
(2) удалить старый торрент у себя из клиента (старые серии удалять не надо),
(3) скачать новый торрент и запустить его у себя в клиенте вместо старого, при этом указать клиенту путь в старую папку куда и должно происходить скачивание новых серий.

Ваш клиент при этом должен произвести хеширование (проверку) старой папки (если не производит сам - помогите ему сделать это), и будет докачивать только те серии которых у вас ещё нет. Старые серии при этом не удаляются, а продолжают раздаваться!

Eсли вы уже удалили старые серии, то предотвратить повторную закачку старых серий можно, отжав галочку в соответсвующих местах при запуске нового торрента. По возможности, желательно не удалять старые серии как можно дольше чтобы релизёр не столько продолжал раздавать старые серии, а смог сконцентрироваться на новых.
pb.wtf



Скачать Беги через торрент https://i111.fastpic.ru/big/2020/0414/a9/f20f7f60250c9fa8e9e3b48c9f3113a9.png Скачать фильм Беги через торрент бесплантно в хорошем качестве Описание: Руби опостылела ее жизнь, поэтому она с радостью откликается на предложение бывшего бойфренда Билли, ставшего успешным гуру, ... 10 10 1
Торрент: Зарегистрирован [2020-06-30 09:00] · скачан: 5 раз
Статус: √ проверено
Размер: 9.49 GB
Как cкачать? Как скачать Беги через торрент | qTorrent

% Раздел Тема Автор DL S | L
Зарубежные сериалы [ 11.17 GB ] Беги / Run / Сезон: 1 / Серии: 1-7 из 7 [2020 WEB-DL 1080p] MVO [Novamedia / Amedia] bober100 Скачать
1 | 0
Зарубежные сериалы [ 2.79 GB ] Беги / Run / Сезон: 1 / Серии: 1-7 из 7 [2020 WEB-DLRip] MVO [Novamedia / Amedia] bober100 Скачать
1 | 0

28-11-2019 20:33  

Отключить всю рекламу на сайте

    Дорогой пользователь! Огромная просьба, поблагодарите релизера, оцените раздачу и оставьте свои комментарий, если Вы скачали Беги через торрент бесплатно! Внесите свою лепту в развитие PiratBit!
    Комментировать посты могут только пользователи прошедшие не сложную регистрацию
    Показать сообщения:    

    Беги через торрент
    Скачать бесплатно Беги
    Беги скачать торрент
    Беги смотреть онлайн
    Cкачать фильм Беги бесплатно
    Беги скачать торрент в хорошем качестве
    Беги смотреть онлайн бесплатно в хорошем качестве


    Вы не можете начинать темы
    Вы не можете отвечать на сообщения
    Вы не можете редактировать свои сообщения
    Вы не можете удалять свои сообщения
    Вы не можете голосовать в опросах
    Вы не можете прикреплять файлы к сообщениям
    Вы можете скачивать файлы