Ссылка на приватное зеркало нашего сайта всего за 1$. Внимание количество ограничено!!!

2 сезон

iTunes

1 сезон

1

iTunes

iTunes

iTunes

1 сезон

RePack

30

ИГРА 18+

pack

ВАЖНО

!!Акция!!

Alien_RageХит недели

RePack

MK11
pack

Забери бонус

RePack

jed

!!Акция!!

Alien_Rage

RePack

fifa19

RePack

Assassins Creed: Odyssey

RePack

NEED FOR SPEED™ PAYBACK

4 сезон

9 сезон

Бесстыжие 9 сезон

Все сериалы

все сериалы на PB.wtf

RePack

FAR CRY 5
  

Консультант / Сезон: 1 / Серии: 1-16 из 16 (Олег Туранский) [2020, Детектив, WEB-DL 1080p] pb.wtf

Консультант через торрент pb.wtf

Размер: 22.91 GB | Добавлен: 6 мес. назад | Торрент скачан:23 раза
Скачать  

14-04-2020 07:40 Консультант Скачать торрент  

Консультант
Год выпуска: 2020
Страна: Россия, Украина
Жанр: Детектив
Продолжительность: ~ 00:45:00
Перевод: Не требуется
Субтитры: отсутствуют

Режиссер: Олег Туранский

В ролях: Алексей Морозов, Алина Сергеева, Павел Вишняков, Алексей Нагрудный, Анна Арефьева, Дмитрий Соловьёв (IV), Олеся Жураковская, Игорь Портянко, Павел Южаков-Харланчук, Ольга Морозова, Александра Коваленко

Описание: В центре сюжета находится прикованный к инвалидной коляске супер криминалист Борис Крылов. В расследованиях он использует не очевидные и парадоксальные методы, благодаря которым раскрывает даже самые трудные преступления. За такие заслуги Бориса называют современным Шерлоком Холмсом. Несмотря на свой колоссальный опыт и талант настоящим испытанием для главного героя становится расследование рядового, на первый взгляд, ДТП, в результате которого погибает его отец...

Качество: WEB-DL 1080p
Формат: MKV

Видео: MPEG-4 AVC, ~ 4346 Кбит/с, 1920x1080, 25 кадр/с
Аудио: 48.0 kHz, AC3 Dolby Digital, 2/0 (L,R) ch, ~ 192 kbps
скриншот  скриншот  скриншот  скриншот  

eneral
Unique ID: 201782946374869670830921998839479200716 (0x97CDFB5BC45F6DED31E4E2BF9072EBCC)
Complete name: H:\fiiles x\Консультант.(2020).WEB-DL (1080p).by.Nicodem.Files-x\01.Консультант.(2020).WEB-DL (1080p).by.Nicodem.Files-x.mkv
Format: Matroska
File size: 1.45 GiB
Duration: 44mn 44s
Overall bit rate: 4 630 Kbps
Writing application: Lavf56.36.100
Writing library: Lavf56.36.100

Video
ID: 1
Format: AVC
Format/Info: Advanced Video Codec
Format profile: High@L4.0
Format settings, CABAC: Yes
Format settings, ReFrames: 4 frames
Format settings, GOP: M=2, N=50
Codec ID: V_MPEG4/ISO/AVC
Duration: 44mn 44s
Bit rate mode: Variable
Bit rate: 4 346 Kbps
Maximum bit rate: 4 500 Kbps
Width: 1 920 pixels
Height: 1 080 pixels
Display aspect ratio: 16:9
Frame rate: 25.000 fps
Color space: YUV
Chroma subsampling: 4:2:0
Bit depth: 8 bits
Scan type: Progressive
Bits/(Pixel*Frame): 0.084
Stream size: 1.36 GiB (94%)
Language: English

Audio
ID: 2
Format: AC-3
Format/Info: Audio Coding 3
Mode extension: CM (complete main)
Codec ID: A_AC3
Duration: 44mn 44s
Bit rate mode: Constant
Bit rate: 192 Kbps
Channel(s): 2 channels
Channel positions: Front: L R
Sampling rate: 44.1 KHz
Bit depth: 16 bits
Compression mode: Lossy
Delay relative to video: 1mn 5s
Stream size: 61.4 MiB (4%)
Language: un

Раздача ведётся путём добавления новых серий, при каждом добавлении создаётся новый торрент. Чтобы начать докачку новой серии, пользователям необходимо сделать следующее:
- Остановить скачивание.
- Удалить старый торрент у себя из клиента (старые серии удалять не надо).
- Скачать новый торрент и запустить его у себя в клиенте вместо старого, при этом указать клиенту путь в старую папку куда и должно происходить скачивание новых серий.
Ваш клиент при этом должен произвести хеширование (проверку) старой папки (если не производит сам - помогите ему сделать это), и будет докачивать только те серии которых у вас ещё нет. Старые серии при этом не удаляются, а продолжают раздаваться!
pb.wtf



Скачать Консультант через торрент https://i111.fastpic.ru/big/2020/0413/b6/93166238ae1d4712a4c2a45c1bebacb6.jpg Скачать фильм Консультант через торрент бесплантно в хорошем качестве Описание: В центре сюжета находится прикованный к инвалидной коляске супер криминалист Борис Крылов. В расследованиях он использует не ... 10 10 6
Торрент: Зарегистрирован [2020-04-24 21:05] · скачан: 23 раз
Статус: √ проверено
Размер: 22.91 GB
Как cкачать? Как скачать Консультант через торрент | qTorrent

% Раздел Тема Автор DL S | L
Наши сериалы [ 8.94 GB ] Консультант / Сезон: 1 / Серии: 1-16 из 16 [2020 WEB-DLRip-AVC] bober100 Скачать
1 | 0
Наши сериалы [ 9.07 GB ] Консультант / Сезон: 1 / Серии: 1-16 из 16 [2020 WEB-DLRip] bober100 Скачать
2 | 0

28-11-2019 20:33  

Отключить всю рекламу на сайте

    Дорогой пользователь! Огромная просьба, поблагодарите релизера, оцените раздачу и оставьте свои комментарий, если Вы скачали Консультант через торрент бесплатно! Внесите свою лепту в развитие PiratBit!
    Комментировать посты могут только пользователи прошедшие не сложную регистрацию
    Показать сообщения:    

    Консультант через торрент
    Скачать бесплатно Консультант
    Консультант скачать торрент
    Консультант смотреть онлайн
    Cкачать фильм Консультант бесплатно
    Консультант скачать торрент в хорошем качестве
    Консультант смотреть онлайн бесплатно в хорошем качестве


    Вы не можете начинать темы
    Вы не можете отвечать на сообщения
    Вы не можете редактировать свои сообщения
    Вы не можете удалять свои сообщения
    Вы не можете голосовать в опросах
    Вы не можете прикреплять файлы к сообщениям
    Вы можете скачивать файлы