Лицензия

MVO

1

1 сезон

Лицензия

Лицензия

13

MVO

1 сезон

Ultimate

pack

Рекомендуем

30

Repack

ВАЖНО

ВАЖНО

Ghostwire

RePack

jed

RePack

fifa19

RePack

RDR2

RePack

NEED FOR SPEED™ PAYBACK

RePack

Кинопоиск HD

 Острые козырьки 6 сезон

6 сезон

FAR CRY 6

RePack

Лицензия

MVO

1

1 сезон

1 сезон

Лицензия

  

Миссия невыполнима: Последствия / Mission: Impossible - Fallout (Кристофер МакКуорри) [2018 г., Боевик, триллер, приключения, BDRip 720p / 60 FPS, Дубляж] ( IMAX Edition ) от R.G. HD-Films

Миссия невыполнима: Последствия через торрент pb.wtf

Раздают: 1 [ 0 KB/s ]
Размер: 5.44 GB | Добавлен: 2 года 5 мес. назад | Торрент скачан:193 раза
Смотреть онлайн Миссия невыполнима: Последствия | Скачать   

14-04-2020 10:04 Миссия невыполнима: Последствия Скачать торрент  

Миссия невыполнима: Последствия / Mission: Impossible - Fallout
Год выпуска: : 2018
Страна: : США, Китай, Франция, Норвегия
Жанр: : Боевик, триллер, приключения
Продолжительность: 02:27:24
Перевод: Дубляж
Субтитры: Russian, форсированные (вшиты в видео) + полные

Режиссер: Кристофер МакКуорри

Бюджет: $178 000 000
Премьера в мире: 12 июля 2018

rating

В ролях: Том Круз, Ребекка Фергюсон (II), Генри Кавилл, Мишель Монахэн, Ванесса Кирби, Уэс Бентли, Саймон Пегг, Анджела Бассетт, Алек Болдуин, Винг Рэймс
Сюжет фильма: Итан Хант и его команда, а также недавно примкнувшие к ним союзники, вынуждены действовать наперегонки со временем, когда новая миссия идет не по плану.

Качество видео: BDRip 720p / 60 FPS
Формат: MKV
Видео кодек: H.264
Аудио кодек: AC3
Видео : x264, 1280 x 672 ( 1,905 ), 4901 kbps, 60,000 fps, ( 0.095 bpp)
Аудио : Русский, AC-3, 48.0 KHz, 6 ch, 384 Kbps
Релиз от:

скриншот   скриншот   скриншот   скриншот   скриншот   скриншот  Автор рипа: slaventi-69
x264 [info]: frame I:3523 Avg QP:12.76 size:121839
x264 [info]: frame P:123870 Avg QP:16.47 size: 25444
x264 [info]: frame B:402770 Avg QP:18.94 size: 4550
x264 [info]: consecutive B-frames: 2.0% 3.2% 8.2% 12.6% 66.7% 7.4%


Общее
Уникальный идентификатор : 32976126594545667295703846994922535352 (0x18CEF891378678B7A966C14F5CB179B8)
Полное имя : F:\Mission.Impossible.Fallout.(2018).BDRip.720p.(60 Fps).(IMAX) .mkv
Формат : Matroska
Версия формата : Version 4
Размер файла : 5,44 Гбайт
Продолжительность : 2 ч. 27 м.
Общий поток : 5289 Кбит/сек
Название фильма : Миссия невыполнима: Последствия / Mission: Impossible - Fallout (2018) BDRip 720p (60 Fps) | IMAX Edition |
Дата кодирования : UTC 2020-04-13 13:06:05
Программа кодирования : mkvmerge v42.0.0 ('Overtime') 64-bit
Библиотека кодирования : libebml v1.3.10 + libmatroska v1.5.2

Видео
Идентификатор : 1
Формат : AVC
Формат/Информация : Advanced Video Codec
Профиль формата : [email protected]
Настройки формата : CABAC / 8 Ref Frames
Параметр CABAC формата : Да
Параметр RefFrames формата : 8 кадров
Идентификатор кодека : V_MPEG4/ISO/AVC
Продолжительность : 2 ч. 27 м.
Битрейт : 4901 Кбит/сек
Ширина : 1280 пикселей
Высота : 672 пикселя
Соотношение сторон : 1,905
Режим частоты кадров : Постоянный
Частота кадров : 60,000 кадров/сек
Цветовое пространство : YUV
Субдискретизация насыщенности : 4:2:0
Битовая глубина : 8 бит
Тип развёртки : Прогрессивная
Бит/(Пиксели*Кадры) : 0.095
Размер потока : 5,04 Гбайт (93%)
Заголовок : slaventi-69 ( R.G. HD-Films | 60 fps )
Библиотека кодирования : x264 core 130 r2273 b3065e6
Настройки программы : cabac=1 / ref=8 / deblock=1:-1:-1 / analyse=0x3:0x133 / me=umh / subme=9 / psy=1 / psy_rd=1.00:0.00 / mixed_ref=1 / me_range=26 / chroma_me=1 / trellis=2 / 8x8dct=1 / cqm=0 / deadzone=21,11 / fast_pskip=0 / chroma_qp_offset=-2 / threads=8 / lookahead_threads=1 / sliced_threads=0 / nr=0 / decimate=1 / interlaced=0 / bluray_compat=0 / constrained_intra=0 / bframes=5 / b_pyramid=2 / b_adapt=2 / b_bias=0 / direct=3 / weightb=1 / open_gop=0 / weightp=2 / keyint=250 / keyint_min=25 / scenecut=40 / intra_refresh=0 / rc_lookahead=50 / rc=crf / mbtree=1 / crf=15.0 / qcomp=0.60 / qpmin=0 / qpmax=69 / qpstep=4 / ip_ratio=1.40 / aq=1:1.00
Язык : English
Default : Да
Forced : Нет

Аудио
Идентификатор : 2
Формат : AC-3
Формат/Информация : Audio Coding 3
Коммерческое название : Dolby Digital
Идентификатор кодека : A_AC3
Продолжительность : 2 ч. 27 м.
Вид битрейта : Постоянный
Битрейт : 384 Кбит/сек
Каналы : 6 каналов
Channel layout : L R C LFE Ls Rs
Частота : 48,0 КГц
Частота кадров : 31,250 кадров/сек (1536 SPF)
Битовая глубина : 16 бит
Метод сжатия : С потерями
Размер потока : 404 Мбайт (7%)
Заголовок : Dub
Язык : Russian
ServiceKind/String : Complete Main
Default : Да
Forced : Нет

Текст
Идентификатор : 3
Формат : UTF-8
Идентификатор кодека : S_TEXT/UTF8
Идентификатор кодека/Информация : UTF-8 Plain Text
Продолжительность : 2 ч. 26 м.
Битрейт : 65 бит/сек
ElementCount : 1549
Размер потока : 70,5 Кбайт (0%)
Заголовок : FULL
Язык : Russian
Default : Нет
Forced : Нет

Меню
00:00:00.000 : en:00:00:00.000
00:10:37.011 : en:00:10:37.011
00:17:11.405 : en:00:17:11.405
00:26:57.241 : en:00:26:57.241
00:35:56.654 : en:00:35:56.654
00:49:18.414 : en:00:49:18.414
01:00:00.806 : en:01:00:00.806
01:10:23.719 : en:01:10:23.719
01:17:07.289 : en:01:17:07.289
01:28:28.470 : en:01:28:28.470
01:39:09.652 : en:01:39:09.652
01:46:26.547 : en:01:46:26.547
01:55:45.564 : en:01:55:45.564
02:03:10.592 : en:02:03:10.592
02:14:00.908 : en:02:14:00.908
02:19:48.088 : en:02:19:48.088

Просьба к переливающим на другие сайты, в оформлении указывайте пожалуйста авторство группы R.G. HD-Films



Скачать Миссия невыполнима: Последствия через торрент https://d.radikal.ru/d08/1811/5e/b9d5e252e013.png Скачать, смотреть онлайн Миссия невыполнима: Последствия бесплантно в хорошем качестве В ролях: Том Круз, Ребекка Фергюсон (II), Генри Кавилл, Мишель Монахэн, Ванесса Кирби, Уэс Бентли, Саймон Пегг, Анджела Бассетт, Алек ... 9.9 10 9
Info! Золотая раздача, скачанное не засчитывается.
Торрент: Зарегистрирован [2020-04-14 10:04] · скачан: 193 раз
Статус: √ проверено
Размер: 5.44 GB
Как cкачать? Как скачать Миссия невыполнима: Последствия через торрент | UTorrent

% Раздел Тема Автор DL S | L
3D Фильмы [ 10.75 GB ] Миссия невыполнима: Последствия 3Д / Mission: Impossible - Fallout 3D | Лицензия | 1080p bober100 Скачать
2 | 0
Фильмы (Blu-ray, BD-Remux, HDDVD) [ 33.34 GB ] Миссия невыполнима: Последствия / Mission: Impossible - Fallout | Лицензия | BD Remux 1080p bober100 Скачать
1 | 0
Ultra HD (UHD: 2K, 4K, 8K) [ 76.08 GB ] Миссия невыполнима: Последствия / Mission: Impossible - Fallout | DUB + AVO | 2160p sheker187 Скачать
1 | 0
Фильмы с авторской озвучкой [ 2.17 GB ] Миссия невыполнима: Последствия / Mission: Impossible - Fallout | AVO | BDRip killermax2013 Скачать
2 | 0
Ultra HD (UHD: 2K, 4K, 8K) [ 71.16 GB ] Миссия невыполнима: Последствия / Mission: Impossible - Fallout | Лицензия | 2160p bober100 Скачать
2 | 0
Фильмы 2018 [DVDrip, WEB-DLRip, HDrip] (DUB, MVO) [ 2.18 GB ] Миссия невыполнима: Последствия / Mission: Impossible - Fallout | Лицензия | BDRip от Twi7ter Twi7ter Скачать
1 | 0
Фильмы 2018 [DVDrip, WEB-DLRip, HDrip] (DUB, MVO) [ 1.46 GB ] Миссия невыполнима: Последствия / Mission: Impossible - Fallout | Лицензия | BDRip от Twi7ter Twi7ter Скачать
1 | 0

28-11-2019 20:33  

Отключить вcю реклaмy на сайте

15-04-2020 06:05 Миссия невыполнима: Последствия Скачать торрент  

Прекрасное дополнение к https://piratbit.org/topic/203713/ антологии!
slaventi-69, респект и уважуха! Кстати у Tiberiumsun69, есть ещё несколько не полных сборничков!



15-04-2020 07:45 Миссия невыполнима: Последствия Скачать торрент  

Я в курсе, всему свое время, а времени как известно не хватает, это дело не 5 минут. Потихоньку будем делать.



    Дорогой пользователь! Огромная просьба, поблагодарите релизера, оцените раздачу и оставьте свои комментарий, если Вы скачали Миссия невыполнима: Последствия через торрент бесплатно!!
    Комментировать посты могут только пользователи прошедшие не сложную регистрацию
    Показать сообщения:    


    Миссия невыполнима: Последствия через торрент
    Скачать бесплатно Миссия невыполнима: Последствия
    Миссия невыполнима: Последствия скачать торрент
    Миссия невыполнима: Последствия смотреть онлайн
    Cкачать фильм Миссия невыполнима: Последствия бесплатно
    Миссия невыполнима: Последствия скачать торрент в хорошем качестве
    Миссия невыполнима: Последствия смотреть онлайн бесплатно в хорошем качестве
    Вы не можете начинать темы
    Вы не можете отвечать на сообщения
    Вы не можете редактировать свои сообщения
    Вы не можете удалять свои сообщения
    Вы не можете голосовать в опросах
    Вы не можете прикреплять файлы к сообщениям
    Вы можете скачивать файлы