2 сезон

iTunes

1 сезон

1

iTunes

iTunes

iTunes

1 сезон

RePack

30

ИГРА 18+

pack

ВАЖНО

!!Акция!!

Alien_RageХит недели

RePack

MK11
pack

Забери бонус

RePack

jed

!!Акция!!

Alien_Rage

RePack

fifa19

RePack

Assassins Creed: Odyssey

RePack

NEED FOR SPEED™ PAYBACK

4 сезон

9 сезон

Бесстыжие 9 сезон

Все сериалы

все сериалы на PB.wtf

RePack

FAR CRY 5
  

Цирк / The Circus (Чарли Чаплин) [1928, мелодрама, комедия, BDRip 1080p by msltel] pb.wtf

Цирк через торрент pb.wtf

Размер: 6.54 GB | Добавлен: 6 мес. назад | Торрент скачан:4 раза
Скачать  

15-04-2020 06:31 Цирк Скачать торрент  

Название: Цирк
Оригинальное название: The Circus
Год выпуска: 1928
Страна: США
Жанр: мелодрама, комедия
Продолжительность: 01:12:43
Перевод: не требуется (немое кино)
Режиссер: Чарли Чаплин
В ролях: Чарли Чаплин, Мерна Кеннеди, Аль Эрнест Гарсиа, Гарри Крокер, Джордж Дэвис, Генри Бергман, Тайни Сэндфорд, Джон Рэнд, Стив Мерфи, Док Стоун

О фильме: «Цирк» одна из самых популярных и удачных его картин, где редкое сочетание комического с лирическим, талант сатирика, изобличающего всё, что мешает людям, нашли зримое воплощение. Это грустная комедия о приключениях Чарли в составе гастролирующего цирка.



Качество: BDRip 1080p
Формат: MKV
Видео: MPEG-4 AVC, 12.7 Mбит/с, 1440x1080, 23.976 кадр/с
Аудио: английский, AC3, 192 kbps, 1 ch, 48 kHz [оригинал]
Субтитры: русские (Shumov и 7ime 7raveller)
Общее
Уникальный идентификатор : 221668701829940069807380546292922678034 (0xA6C3D6CC8E44460CB48CD69FB39B7B12)
Полное имя : D:\Video\Цирк.1928.BDRip 1080p by msltel.mkv
Формат : Matroska
Версия формата : Version 4
Размер файла : 6,54 Гбайт
Продолжительность : 1 ч. 12 м.
Общий поток : 12,9 Мбит/сек
Название фильма : Rip by msltel
Дата кодирования : UTC 2020-04-15 02:24:21
Программа кодирования : mkvmerge v8.2.0 ('World of Adventure') 64bit
Библиотека кодирования : libebml v1.3.1 + libmatroska v1.4.2

Видео
Идентификатор : 1
Формат : AVC
Формат/Информация : Advanced Video Codec
Профиль формата : High@L4.1
Настройки формата : CABAC / 5 Ref Frames
Параметр CABAC формата : Да
Параметр RefFrames формата : 5 кадров
Идентификатор кодека : V_MPEG4/ISO/AVC
Продолжительность : 1 ч. 12 м.
Битрейт : 12,7 Мбит/сек
Ширина : 1 440 пикселей
Высота : 1 080 пикселей
Соотношение сторон : 4:3
Режим частоты кадров : Постоянный
Частота кадров : 23,976 (24000/1001) кадра/сек
Цветовое пространство : YUV
Субдискретизация насыщенности : 4:2:0
Битовая глубина : 8 бит
Тип развёртки : Прогрессивная
Бит/(Пиксели*Кадры) : 0.340
Размер потока : 6,44 Гбайт (98%)
Библиотека кодирования : x264 core 159 r2991 1771b55
Настройки программы : cabac=1 / ref=5 / deblock=1:-2:-2 / analyse=0x3:0x113 / me=umh / subme=11 / psy=1 / psy_rd=1.00:0.15 / mixed_ref=1 / me_range=32 / chroma_me=1 / trellis=2 / 8x8dct=1 / cqm=0 / deadzone=21,11 / fast_pskip=0 / chroma_qp_offset=-3 / threads=6 / lookahead_threads=1 / sliced_threads=0 / nr=0 / decimate=1 / interlaced=0 / bluray_compat=0 / constrained_intra=0 / bframes=9 / b_pyramid=2 / b_adapt=2 / b_bias=0 / direct=1 / weightb=1 / open_gop=0 / weightp=2 / keyint=230 / keyint_min=23 / scenecut=40 / intra_refresh=0 / rc_lookahead=40 / rc=crf / mbtree=1 / crf=20.0 / qcomp=0.60 / qpmin=0 / qpmax=69 / qpstep=4 / vbv_maxrate=50000 / vbv_bufsize=62500 / crf_max=0.0 / nal_hrd=none / filler=0 / ip_ratio=1.40 / aq=1:1.00
Язык : English
Default : Да
Forced : Нет

Аудио
Идентификатор : 2
Формат : AC-3
Формат/Информация : Audio Coding 3
Коммерческое название : Dolby Digital
Идентификатор кодека : A_AC3
Продолжительность : 1 ч. 12 м.
Вид битрейта : Постоянный
Битрейт : 192 Кбит/сек
Каналы : 1 канал
Channel layout : C
Частота : 48,0 КГц
Частота кадров : 31,250 кадров/сек (1536 SPF)
Метод сжатия : С потерями
Размер потока : 99,9 Мбайт (1%)
Заголовок : музыкальное сопровождение
Язык : English
Service kind : Complete Main
Default : Да
Forced : Нет

Текст
Идентификатор : 3
Формат : UTF-8
Идентификатор кодека : S_TEXT/UTF8
Идентификатор кодека/Информация : UTF-8 Plain Text
Продолжительность : 1 ч. 11 м.
Битрейт : 14 бит/сек
Count of elements : 156
Размер потока : 7,61 Кбайт (0%)
Заголовок : русские Shumov и 7ime 7raveller
Язык : Russian
Default : Да
Forced : Нет
pb.wtf



Скачать Цирк через торрент https://b.radikal.ru/b28/2004/45/81491281f42a.jpg Скачать фильм Цирк через торрент бесплантно в хорошем качестве О фильме: «Цирк» одна из самых популярных и удачных его картин, где редкое сочетание комического с лирическим, талант сатирика, ... 10 10 1
Info! Золотая раздача, скачанное не засчитывается.
Торрент: Зарегистрирован [2020-04-15 06:31] · скачан: 4 раз
Статус: √ проверено
Размер: 6.54 GB
Как cкачать? Как скачать Цирк через торрент | qTorrent

% Раздел Тема Автор DL S | L
Классика зарубежного кино [ 2.38 GB ] Цирк / The Circus [1928 BDRip 720p by msltel] msltel Скачать
1 | 0
Классика зарубежного кино [ 1.38 GB ] Цирк / The Circus [1928 BDRip-AVC by msltel] msltel Скачать
1 | 0
Классика зарубежного кино [ 870 MB ] Цирк / The Circus [1928 DVDRip Оригинал] StarKey Скачать
1 | 0
Фильмы 2009 [ 468 MB ] Цирк «Бабочка» / The Butterfly Circus [2009 короткометражка WEB-DLRip] 61RusSektor Скачать
1 | 0

28-11-2019 20:33  

Отключить всю рекламу на сайте

    Дорогой пользователь! Огромная просьба, поблагодарите релизера, оцените раздачу и оставьте свои комментарий, если Вы скачали Цирк через торрент бесплатно! Внесите свою лепту в развитие PiratBit!
    Комментировать посты могут только пользователи прошедшие не сложную регистрацию
    Показать сообщения:    

    Цирк через торрент
    Скачать бесплатно Цирк
    Цирк скачать торрент
    Цирк смотреть онлайн
    Cкачать фильм Цирк бесплатно
    Цирк скачать торрент в хорошем качестве
    Цирк смотреть онлайн бесплатно в хорошем качестве


    Вы не можете начинать темы
    Вы не можете отвечать на сообщения
    Вы не можете редактировать свои сообщения
    Вы не можете удалять свои сообщения
    Вы не можете голосовать в опросах
    Вы не можете прикреплять файлы к сообщениям
    Вы можете скачивать файлы