2 сезон

iTunes

MVO

1

2 сезон

iTunes

iTunes

1 сезон

RePack

30

Новинка

ВАЖНО

ИГРА 18+

pack

RePack

MK11
pack

Легкие деньги

RePack

jed

RePack

fifa19

RePack

RDR2

RePack

NEED FOR SPEED™ PAYBACK

4 сезон

9 сезон

Бесстыжие 9 сезон

Все сериалы

все сериалы на PB.wtf

RePack

FAR CRY 5

Anonymous, доброй ночи, мы не успеваем собрать деньги на оплату серверов за декабрь и январь, помогите нам пожалуйста в это трудное время. В качестве благодарности мы отключим Вам всю рекламу на сайте (укажите свой ник в строку Ваше имя)!

×
  
Magnet ссылка

Трансформеры: Последний рыцарь / Transformers: The Last Knight (Майкл Бэй) [2017 г., Фантастика, боевик, триллер, приключения, BDRip 720p / 60 FPS, Дубляж] ( IMAX Edition ) от R.G. HD-Films pb.wtf

Трансформеры: Последний рыцарь через торрент pb.wtf

Качают: 1 [ 0 KB/s ]
Размер: 6.71 GB | Добавлен: 9 мес. назад | Торрент скачан:74 раза
Скачать  

15-04-2020 09:33 Трансформеры: Последний рыцарь Скачать торрент  

Трансформеры: Последний рыцарь / Transformers: The Last Knight
Год выпуска: : 2017
Страна: : США
Жанр: : Фантастика, боевик, триллер, приключения
Продолжительность: 02:34:38
Перевод: Дубляж
Субтитры: Russian, English

Режиссер: Майкл Бэй

Бюджет: $217 000 000
Премьера в мире: 18 июня 2017

rating

В ролях: Марк Уолберг, Энтони Хопкинс, Джош Дюамель, Лора Хэддок, Сантьяго Кабрера, Изабела Монер, Джеррод Кармайкл, Стэнли Туччи, Лиам Гэрриган, Мартин МакКриди

Сюжет фильма: Оптимус Прайм исчез. Люди ведут войну с Трансформерами. Ключ к нашему будущему погребен в тайнах прошлого, в скрытой истории Трансформеров на Земле… Миссия по спасению мира ложится на плечи разношерстной компании, состоящей из Кейда Йегера, Бамблби, английского лорда и профессора из Оксфорда. Пришла пора действовать! Жертвы станут героями. Герои станут злодеями. Выстоит только один мир: их или наш.

Качество видео: BDRip 720p / 60 FPS
Формат: MKV
Видео кодек: H.264
Аудио кодек: AC3
Видео : x264, 1280 x 672 ( 1,905 ), 5827 kbps, 60,000 fps, ( 0.113 bpp)
Аудио : Русский, AC-3, 48.0 KHz, 6 ch, 384 Kbps
Релиз от:

скриншот   скриншот   скриншот   скриншот   скриншот   скриншот  Автор рипа: slaventi-69
Общее
Уникальный идентификатор : 148673072131136754426622131203014667449 (0x6FD9646436B62B0DC70DCA9AEF082CB9)
Полное имя : F:\Transformers.The.Last.Knight.(2017).BDRip.720p.(60 Fps).(IMAX).mkv
Формат : Matroska
Версия формата : Version 4
Размер файла : 6,71 Гбайт
Продолжительность : 2 ч. 34 м.
Общий поток : 6215 Кбит/сек
Название фильма : Трансформеры: Последний рыцарь / Transformers: The Last Knight (2017) BDRip 720p (60 Fps) | IMAX Edition |
Дата кодирования : UTC 2020-04-14 10:32:26
Программа кодирования : mkvmerge v42.0.0 ('Overtime') 64-bit
Библиотека кодирования : libebml v1.3.10 + libmatroska v1.5.2

Видео
Идентификатор : 1
Формат : AVC
Формат/Информация : Advanced Video Codec
Профиль формата : High@L4.1
Настройки формата : CABAC / 8 Ref Frames
Параметр CABAC формата : Да
Параметр RefFrames формата : 8 кадров
Идентификатор кодека : V_MPEG4/ISO/AVC
Продолжительность : 2 ч. 34 м.
Битрейт : 5827 Кбит/сек
Ширина : 1280 пикселей
Высота : 672 пикселя
Соотношение сторон : 1,905
Режим частоты кадров : Постоянный
Частота кадров : 60,000 кадров/сек
Цветовое пространство : YUV
Субдискретизация насыщенности : 4:2:0
Битовая глубина : 8 бит
Тип развёртки : Прогрессивная
Бит/(Пиксели*Кадры) : 0.113
Размер потока : 6,29 Гбайт (94%)
Заголовок : slaventi-69 ( R.G. HD-Films | 60 fps )
Библиотека кодирования : x264 core 130 r2273 b3065e6
Настройки программы : cabac=1 / ref=8 / deblock=1:-1:-1 / analyse=0x3:0x133 / me=umh / subme=9 / psy=1 / psy_rd=1.00:0.00 / mixed_ref=1 / me_range=28 / chroma_me=1 / trellis=2 / 8x8dct=1 / cqm=0 / deadzone=21,11 / fast_pskip=0 / chroma_qp_offset=-2 / threads=6 / lookahead_threads=1 / sliced_threads=0 / nr=0 / decimate=1 / interlaced=0 / bluray_compat=0 / constrained_intra=0 / bframes=5 / b_pyramid=2 / b_adapt=2 / b_bias=0 / direct=3 / weightb=1 / open_gop=0 / weightp=2 / keyint=250 / keyint_min=25 / scenecut=40 / intra_refresh=0 / rc_lookahead=50 / rc=crf / mbtree=1 / crf=17.5 / qcomp=0.60 / qpmin=0 / qpmax=69 / qpstep=4 / ip_ratio=1.40 / aq=1:1.00
Язык : English
Default : Да
Forced : Нет

Аудио
Идентификатор : 2
Формат : AC-3
Формат/Информация : Audio Coding 3
Коммерческое название : Dolby Digital
Идентификатор кодека : A_AC3
Продолжительность : 2 ч. 34 м.
Вид битрейта : Постоянный
Битрейт : 384 Кбит/сек
Каналы : 6 каналов
Channel layout : L R C LFE Ls Rs
Частота : 48,0 КГц
Частота кадров : 31,250 кадров/сек (1536 SPF)
Битовая глубина : 16 бит
Метод сжатия : С потерями
Размер потока : 425 Мбайт (6%)
Заголовок : Dub
Язык : Russian
ServiceKind/String : Complete Main
Default : Да
Forced : Нет

Текст #1
Идентификатор : 3
Формат : UTF-8
Идентификатор кодека : S_TEXT/UTF8
Идентификатор кодека/Информация : UTF-8 Plain Text
Продолжительность : 2 ч. 5 м.
Битрейт : 1 бит/сек
ElementCount : 33
Размер потока : 1,25 Кбайт (0%)
Заголовок : Rus forced
Язык : Russian
Default : Нет
Forced : Да

Текст #2
Идентификатор : 4
Формат : UTF-8
Идентификатор кодека : S_TEXT/UTF8
Идентификатор кодека/Информация : UTF-8 Plain Text
Продолжительность : 2 ч. 34 м.
Битрейт : 78 бит/сек
ElementCount : 2313
Размер потока : 88,0 Кбайт (0%)
Заголовок : Rus full
Язык : Russian
Default : Нет
Forced : Нет

Текст #3
Идентификатор : 5
Формат : UTF-8
Идентификатор кодека : S_TEXT/UTF8
Идентификатор кодека/Информация : UTF-8 Plain Text
Продолжительность : 2 ч. 24 м.
Битрейт : 67 бит/сек
ElementCount : 2276
Размер потока : 71,2 Кбайт (0%)
Заголовок : Eng full
Язык : English
Default : Нет
Forced : Нет

Меню
00:00:00.000 : :Chapter 01
00:06:36.104 : :Chapter 02
00:14:03.467 : :Chapter 03
00:21:45.762 : :Chapter 04
00:27:53.254 : :Chapter 05
00:33:53.906 : :Chapter 06
00:40:08.906 : :Chapter 07
00:46:58.941 : :Chapter 08
00:53:25.785 : :Chapter 09
01:02:02.927 : :Chapter 10
01:08:47.081 : :Chapter 11
01:14:37.222 : :Chapter 12
01:20:10.180 : :Chapter 13
01:29:13.389 : :Chapter 14
01:37:59.498 : :Chapter 15
01:44:57.582 : :Chapter 16
01:51:15.502 : :Chapter 17
01:57:59.447 : :Chapter 18
02:06:09.728 : :Chapter 19
02:10:54.096 : :Chapter 20
02:16:01.153 : :Chapter 21
02:21:42.619 : :Chapter 22
02:25:17.291 : :Chapter 23

Просьба к переливающим на другие сайты, в оформлении указывайте пожалуйста авторство группы R.G. HD-Films pb.wtf



Скачать Трансформеры: Последний рыцарь через торрент http://lostpix.com/img/2017-09/21/yharz1v790yu52fh086h0xovr.jpg Скачать фильм Трансформеры: Последний рыцарь через торрент бесплантно в хорошем качестве В ролях: Марк Уолберг, Энтони Хопкинс, Джош Дюамель, Лора Хэддок, Сантьяго Кабрера, Изабела Монер, Джеррод Кармайкл, Стэнли Туччи, Лиам ... 10 10 8
Торрент: Зарегистрирован [2020-04-15 09:33] · скачан: 74 раз
Статус: √ проверено
Размер: 6.71 GB
Как cкачать? Как скачать Трансформеры: Последний рыцарь через торрент | UTorrent

28-11-2019 20:33  

Отключить всю рекламу на сайте

16-04-2020 07:35 Трансформеры: Последний рыцарь Скачать торрент  

Огромное мерси! Месяц на раздаче гарантирую! pb.wtf



    Дорогой пользователь! Огромная просьба, поблагодарите релизера, оцените раздачу и оставьте свои комментарий, если Вы скачали Трансформеры: Последний рыцарь через торрент бесплатно! Внесите свою лепту в развитие PiratBit!
    Комментировать посты могут только пользователи прошедшие не сложную регистрацию
    Показать сообщения:    

    Трансформеры: Последний рыцарь через торрент
    Скачать бесплатно Трансформеры: Последний рыцарь
    Трансформеры: Последний рыцарь скачать торрент
    Трансформеры: Последний рыцарь смотреть онлайн
    Cкачать фильм Трансформеры: Последний рыцарь бесплатно
    Трансформеры: Последний рыцарь скачать торрент в хорошем качестве
    Трансформеры: Последний рыцарь смотреть онлайн бесплатно в хорошем качестве


    Вы не можете начинать темы
    Вы не можете отвечать на сообщения
    Вы не можете редактировать свои сообщения
    Вы не можете удалять свои сообщения
    Вы не можете голосовать в опросах
    Вы не можете прикреплять файлы к сообщениям
    Вы можете скачивать файлы