2 сезон

iTunes

MVO

1

2 сезон

iTunes

iTunes

1 сезон

RePack

30

Новинка

ВАЖНО

ИГРА 18+

pack

RePack

MK11
pack

Легкие деньги

RePack

jed

RePack

fifa19

RePack

RDR2

RePack

NEED FOR SPEED™ PAYBACK

4 сезон

9 сезон

Бесстыжие 9 сезон

Все сериалы

все сериалы на PB.wtf

RePack

FAR CRY 5

Anonymous, доброй ночи, мы не успеваем собрать деньги на оплату серверов за декабрь и январь, помогите нам пожалуйста в это трудное время. В качестве благодарности мы отключим Вам всю рекламу на сайте (укажите свой ник в строку Ваше имя)!

×
  
Magnet ссылка

Ну, держись в 3Д / Comin' at Ya! 3D (Фердинандо Бальди / Ferdinando Baldi) [1981, вестерн, BDRip, 1080p] OverUnder / Вертикальная стереопара (VO) pb.wtf

Ну, держись в 3Д через торрент pb.wtf

Размер: 11.99 GB | Добавлен: 9 мес. назад | Торрент скачан:7 раз
Скачать  

15-04-2020 14:31 Ну, держись в 3Д Скачать торрент  

Ну, держись / Comin' at Ya!

Год выпуска: 1981
Страна: Италия, Испания, США
Жанр: вестерн
Продолжительность: 01:27:47

Перевод: Одноголосый закадровый (Вадим Назаров)
Русские субтитры: нет
Режиссер на русском: Фердинандо Бальди / Ferdinando Baldi

В ролях: Тони Энтони, Джин Квинтано, Виктория Абриль, Рикардо Паласиос, Льюис Гордон, Луис Барбо, Чарли Браво, Хоакин Гомес

Описание: Два жестоких брата похищают невесту во время свадьбы. Главный герой отправляется на её поиски, чтобы вернуть любимую и отомстить обидчикам.

Дополнительная информация по релизу: 3D очень глубокое. Фильм специально заточен под 3D эффекты вылетов.
Русская дорога получена вставкой вырезанных русских фраз в центр оригинала.

Сэмпл: http://sendfile.su/1556137

Качество: BDrip, 1080p
Контейнер: MKV
Формат 3D: OverUnder / Вертикальная стереопара
Порядок ракурсов: левый ракурс первый
Видео кодек: x264
Аудио кодек: AC3
Видео: AVC / High@L5.0 / 23,976 fps / 1920х2160 / 17,9 Мбит/сек
Аудио: Русский / AC3 / 48 KHz / 5.1 ch / 640 Кбит/сек(VO - Вадим Назаров) (перемонтаж стерео в 5.1 - Ash61)
Аудио 2: Английский / AC3 / 48 KHz / 5.1 ch / 640 Кбит/сек

ВНИМАНИЕ ! На встроенных ТВ-плеерах работать не будет!!!

ТВ Samsung в названии которого есть надпись Ultra HD , и LG Ultra HD 800 серии, LG C6P, Xiaomi Mi TV 2 воспроизводят полные стереопары встроенными плеерами
Железные плееры на которых воспроизводятся полные стереопары:Popcorn C-200 , Dune HD Smart D1 , Dune HD DUO , Dune HD Smart H1 , Dune HD Smart B1 , Dune HD Max , Dune HD TV-303D, Dune HD TV-102, Dune HD Base 3D, Philips HMP7001, Aura HD, MECOOL BB2, Zidoo x9s, Lake I Cloud, MiBox 3
Чтобы изображение было на весь экран в плеере выставляем, если рип 1920х1600 - то выставляем 2.35:1 , если 1920х2160 - то выставляем 16:9
Общее
Уникальный идентификатор : 205108326852430534823058106412567304828 (0x9A4E6D463A101AC5A63907F5027B1A7C)
Полное имя : E:\видео\Comin' at Ya!.Rip by SeRoGa00.mkv
Формат : Matroska
Версия формата : Version 2
Размер файла : 12,0 Гбайт
Продолжительность : 1 ч. 27 м.
Общий поток : 19,5 Мбит/сек
Дата кодирования : UTC 2020-04-15 13:42:01
Программа кодирования : mkvmerge v3.4.0 ('Rapunzel') сборка от May 15 2010 09:38:20
Библиотека кодирования : libebml v0.8.0 + libmatroska v0.9.0

Видео
Идентификатор : 1
Формат : AVC
Формат/Информация : Advanced Video Codec
Профиль формата : High@L5.0
Параметр CABAC формата : Да
Параметр ReFrames формата : 4 кадра
Идентификатор кодека : V_MPEG4/ISO/AVC
Продолжительность : 1 ч. 27 м.
Битрейт : 17,9 Мбит/сек
Ширина : 1920 пикселей
Высота : 2160 пикселей
Соотношение сторон : 0,889
Частота кадров : 23,976 кадра/сек
Цветовое пространство : YUV
Субдискретизация насыщенности : 4:2:0
Битовая глубина : 8 бит
Тип развёртки : Прогрессивная
Бит/(Пиксели*Кадры) : 0.180
Размер потока : 11,0 Гбайт (91%)
Заголовок : Rip by SeRoGa00
Библиотека кодирования : x264 core 157 r2969 d4099dd
Настройки программы : cabac=1 / ref=4 / deblock=1:-3:-3 / analyse=0x3:0x113 / me=umh / subme=10 / psy=1 / psy_rd=1.00:0.15 / mixed_ref=1 / me_range=24 / chroma_me=1 / trellis=2 / 8x8dct=1 / cqm=0 / deadzone=21,11 / fast_pskip=1 / chroma_qp_offset=-3 / threads=18 / lookahead_threads=6 / sliced_threads=0 / nr=0 / decimate=0 / interlaced=0 / bluray_compat=0 / constrained_intra=0 / bframes=10 / b_pyramid=2 / b_adapt=2 / b_bias=0 / direct=3 / weightb=1 / open_gop=0 / weightp=2 / keyint=250 / keyint_min=23 / scenecut=40 / intra_refresh=0 / rc_lookahead=60 / rc=crf / mbtree=1 / crf=18.0 / qcomp=0.60 / qpmin=10 / qpmax=69 / qpstep=4 / vbv_maxrate=40000 / vbv_bufsize=40000 / crf_max=0.0 / nal_hrd=none / filler=0 / ip_ratio=1.40 / aq=1:1.00
Язык : English
Default : Нет
Forced : Нет

Аудио #1
Идентификатор : 2
Формат : AC-3
Формат/Информация : Audio Coding 3
Расширение режима : CM (complete main)
Параметр Endianness формата : Big
Идентификатор кодека : A_AC3
Продолжительность : 1 ч. 27 м.
Вид битрейта : Постоянный
Битрейт : 640 Кбит/сек
Каналы : 6 каналов
Расположение каналов : Front: L C R, Side: L R, LFE
Частота : 48,0 КГц
Битовая глубина : 16 бит
Метод сжатия : С потерями
Размер потока : 402 Мбайт (3%)
Язык : Russian
Default : Да
Forced : Нет

Аудио #2
Идентификатор : 3
Формат : AC-3
Формат/Информация : Audio Coding 3
Расширение режима : CM (complete main)
Параметр Endianness формата : Big
Идентификатор кодека : A_AC3
Продолжительность : 1 ч. 27 м.
Вид битрейта : Постоянный
Битрейт : 640 Кбит/сек
Каналы : 6 каналов
Расположение каналов : Front: L C R, Side: L R, LFE
Частота : 48,0 КГц
Битовая глубина : 16 бит
Метод сжатия : С потерями
Размер потока : 402 Мбайт (3%)
Язык : English
Default : Нет
Forced : Нет

Меню
00:00:00.000 : :1
00:09:29.819 : :2
00:16:35.203 : :3
00:21:43.928 : :4
00:29:47.577 : :5
00:38:07.702 : :6
00:45:23.137 : :7
00:52:34.443 : :8
00:58:45.522 : :9
01:08:10.503 : :10
01:15:16.137 : :11
01:21:39.895 : :12
скриншот  

скриншот  

скриншот  

скриншот  

скриншот  

скриншот  
pb.wtf



Скачать Ну, держись в 3Д через торрент https://c.radikal.ru/c23/2004/30/af5c86f8a677.png Скачать фильм Ну, держись в 3Д через торрент бесплантно в хорошем качестве Описание: Два жестоких брата похищают невесту во время свадьбы. Главный герой отправляется на её поиски, чтобы вернуть любимую и отомстить ... 5 10 1
Торрент: Зарегистрирован [2020-04-15 14:31] · скачан: 7 раз
Статус: √ проверено
Размер: 11.99 GB
Как cкачать? Как скачать Ну, держись в 3Д через торрент | UTorrent

28-11-2019 20:33  

Отключить всю рекламу на сайте

    Дорогой пользователь! Огромная просьба, поблагодарите релизера, оцените раздачу и оставьте свои комментарий, если Вы скачали Ну, держись в 3Д через торрент бесплатно! Внесите свою лепту в развитие PiratBit!
    Комментировать посты могут только пользователи прошедшие не сложную регистрацию
    Показать сообщения:    

    Ну, держись в 3Д через торрент
    Скачать бесплатно Ну, держись в 3Д
    Ну, держись в 3Д скачать торрент
    Ну, держись в 3Д смотреть онлайн
    Cкачать фильм Ну, держись в 3Д бесплатно
    Ну, держись в 3Д скачать торрент в хорошем качестве
    Ну, держись в 3Д смотреть онлайн бесплатно в хорошем качестве


    Вы не можете начинать темы
    Вы не можете отвечать на сообщения
    Вы не можете редактировать свои сообщения
    Вы не можете удалять свои сообщения
    Вы не можете голосовать в опросах
    Вы не можете прикреплять файлы к сообщениям
    Вы можете скачивать файлы